Игроки / Mr. & Mrs. Khiladi (Давид Дхаван / David Dhawan) [1997, Индия, Комедия, WEBRip] MVO (Формат АВ) 

Цитировать
Игроки / Mr. & Mrs. Khiladi
Страна: Индия
Жанр: Комедия
Год выпуска: 1997
Продолжительность: 02:13:37
Перевод: Профессиональный (многоголосый закадровый) Формат АВ
Субтитры: нет
Режиссер: Давид Дхаван / David Dhawan
В ролях: Акшай Кумар, Джухи Чавла, Кадер Кхан, Сатиш Каушик, Пареш Раваль, Химани Шивпури, Упасана Сингх, Прачи, Джонни Левер, Гульшан Гровер, Ракеш Беди, Мак Мохан, Шаши Киран, Сунил Дхаван, Кишор Ананд Бханушали, Радж Кишор, Гудди Марути
Описание: Раджа - хорошо образованный юноша из среднего класса. Единственная его проблема - это слепое доверие астрологии. Он находится под ложным впечатлением того, что однажды станет королём. Так ему сказала мать его дяди Чанды, которая занимается астрологией. В Раджу влюбляется дочь экспортёра Шаулу, но Бадри Прасад против их женитьбы, потому что считает Раджу ни на что не годным. А Шаула решила выйти замуж только за Раджу. Наконец Бадри Прасад даёт согласие на свадьбу, если Раджа сможет достать миллион рупий. Собрать такую сумму - нелёгкое занятие. О том, что Раджа делает, чтобы выполнить задание вы узнаете в фильме "Игроки".
Доп. информация: Сведение звука: oktober (Спасибо!)
Сэмпл: http://multi-up.com/1066810
Качество видео: WEBRip
Формат видео: AVI
Видео: XviD build 50, 688x288 (2.39:1), 25 fps, 1426 kbps avg
Аудио: MPEG Layer 3, 48 kHz, 2/0 (L,R) ch, 128.00 kbps

MediaInfo

General
Complete name : F:\Igroki.1997.XviD.WEBRip.avi
Format : AVI
Format/Info : Audio Video Interleave
File size : 1.46 GiB
Duration : 2h 13mn
Overall bit rate : 1 565 Kbps
Writing application : VirtualDubMod 1.5.10.2 (build 2540/release)
Writing library : VirtualDubMod build 2540/release
Video
ID : 0
Format : MPEG-4 Visual
Format profile : AdvancedSimple@L5
Format settings, BVOP : Yes
Format settings, QPel : No
Format settings, GMC : No warppoints
Format settings, Matrix : Custom
Codec ID : XVID
Codec ID/Hint : XviD
Duration : 2h 13mn
Bit rate : 1 427 Kbps
Width : 688 pixels
Height : 288 pixels
Display aspect ratio : 2.35
Frame rate : 25.000 fps
Resolution : 24 bits
Colorimetry : 4:2:0
Scan type : Progressive
Bits/(Pixel*Frame) : 0.288
Stream size : 1.33 GiB (91%)
Writing library : XviD 1.2.1 (UTC 2008-12-04)
Audio
ID : 1
Format : MPEG Audio
Format version : Version 1
Format profile : Layer 3
Codec ID : 55
Codec ID/Hint : MP3
Duration : 2h 13mn
Bit rate mode : Constant
Bit rate : 128 Kbps
Channel(s) : 2 channels
Sampling rate : 48.0 KHz
Resolution : 16 bits
Stream size : 122 MiB (8%)
Alignment : Aligned on interleaves
Interleave, duration : 40 ms (1.00 video frame)
Interleave, preload duration : 504 ms

Скриншоты

Вы не можете начинать темы
Вы не можете отвечать на сообщения
Вы не можете редактировать свои сообщения
Вы не можете удалять свои сообщения
Вы не можете голосовать в опросах
Вы не можете прикреплять файлы к сообщениям
Вы можете скачивать файлы
!ВНИМАНИЕ!

Сайт не предоставляет электронные версии произведений, а занимается лишь коллекционированием и каталогизацией ссылок, присылаемых и публикуемых на форуме нашими читателями. Если вы являетесь правообладателем какого-либо представленного материала и не желаете, чтобы ссылка на него находилась в нашем каталоге, свяжитесь с нами, и мы незамедлительно удалим ее. Файлы для обмена на трекере предоставлены пользователями сайта, и администрация не несет ответственности за их содержание. Просьба не заливать файлы, защищенные авторскими правами, а также файлы нелегального содержания!

Искали программы, игры, дополнения, музыка mp3, аниме, аудио книги, журналы? Добро пожаловать на свободный торрент трекер Torrents, у нас можно скачать бесплатно, без смс и регистрации и прочих ограничений лучшие, отборные сборки программ, игр. Скачать торрентом не составит труда даже не опытному пользователю. Раздачи ежедневно обновляются, только лучшие и качественные раздачи, подробные описания и скриншоты. Огромная коллекция программ для работы со звуком, графикой, дизайном, а так же множество плагинов и инструментов к ним с подробной инструкцией и рекомендациями. Прошивки для навигаторов, карты. Разнообразные игры, для Windows, Linux. В коллекцие есть и старые игры любых жанров, Rpg, Action, Shooter, strategy Множество дополнений, модификаций, сценариев для популярных игр в жанре экш, рпг, гонки, стратегии, логические игры. Множество аддонов и сценариев для Microsoft Flight Simulator Большая коллекция книг, учебников. Если нет возможности купить печатное издание - смело скачивайте цифровую версию книги или, быть может, журнала. Не любите читать - можно загрузить бесплатно аудикнигу. Для веб дизайнеров и программистов так же найдется множество специализированного софта, таких как: редакторы с подсветкой, среды программирования, компоненты, системы управления базами данных, разнообразные скрипты и шаблоны. Не так давно у нас появился материал для автолюбителей и владельцев мото - оригинальные и неоригинальные каталоги запчастей, книги и журналы по ремонту и обслуживанию, видеоуроки, статьи по чип тюнингу, прошивкам. Процедура получения контента элементарная, достаточно просто скачать торрент файл и добавить его в загрузку в вашем торрент клиенте. Если у вас нет специального торрент клиента, вы можете его скачать у нас.