Тесная связь / Raabta (Динеш Виджан / Dinesh Vijan) [2017, Индия, Драма, мелодрама, комедия, WEB-DLRip] MVO + Sub Rus (на песни) 

Цитировать
Тесная связь / Raabta- Страна: Индия
Жанр: Драма, мелодрама, комедия
Год выпуска: 2017
Продолжительность: 02:23:29-Перевод: Любительский (многоголосый закадровый) - Маргарита Сахно, Давид Петросян и Кирилл Патрино
Субтитры: Pусские (Только на песни)-Режиссер: Динеш Виджан / Dinesh Vijan-В ролях: Крити Санон, Сушант Сингх Раджпут, Джим Шарбх, Варун Шарма, Дипика Падукон (камео)-Описание: Эта история начинается со случайной встречи Сайры - простой девушки-кондитера, которая зарабатывает себе на жизнь приготовлением шоколада и Шива - заядлого бабника, который не пропускает ни одной юбки. Между молодыми сразу вспыхивает искра, которая разгорится в настоящий пожар с появлением в их жизни миллионера Закира, который утверждает, что их встреча неслучайна...
Сэмпл: http://multi-up.com/1164037
Качество видео: WEB-DLRip
Формат видео: AVI
Видео: 720x304 (2.35:1), 23.976 fps, XviD build 73, 1934 Kbps, 0.36 bit/pixel
Аудио: 48 kHz, AC3 Dolby Digital, 2 ch, 192 Kbps

Релиз

Озвучка: Маргарита Сахно, Давид Петросян и Кирилл Патрино
Перевод и редакция: ❖ Honey&Haseena ❖
Звукорежиссёр: Михаил Шорыгин
Релиз-группа:
Фильм переведён и озвучен по специальному заказу Селены Шелестовой для группы ВК: ♥ИНДИЙСКОЕ КИНО - БОЛЛИВУД И ЮГ

MediaInfo

General
Complete name : Downloads\Uzi.2017.WEB-DLRip.XviD.Honey&Haseena.avi
Format : AVI
Format/Info : Audio Video Interleave
File size : 2.14 GiB
Duration : 2h 23mn
Overall bit rate : 2 135 Kbps
Writing application : VirtualDubMod 1.5.10.2 (build 2542/release)
Writing library : VirtualDubMod build 2542/release
Video #0
ID : 0
Format : MPEG-4 Visual
Format profile : Advanced Simple@L5
Format settings, BVOP : 1
Format settings, QPel : No
Format settings, GMC : No warppoints
Format settings, Matrix : Default (MPEG)
Codec ID : XVID
Codec ID/Hint : XviD
Duration : 2h 23mn
Bit rate : 1 934 Kbps
Width : 720 pixels
Height : 304 pixels
Display aspect ratio : 2.35:1
Frame rate : 23.976 fps
Color space : YUV
Chroma subsampling : 4:2:0
Bit depth : 8 bits
Scan type : Progressive
Compression mode : Lossy
Bits/(Pixel*Frame) : 0.369
Stream size : 1.94 GiB (91%)
Writing library : XviD 73
Audio #1
ID : 1
Format : AC-3
Format/Info : Audio Coding 3
Mode extension : CM (complete main)
Format settings, Endianness : Big
Codec ID : 2000
Duration : 2h 23mn
Bit rate mode : Constant
Bit rate : 192 Kbps
Channel(s) : 2 channels
Channel positions : Front: L R
Sampling rate : 48.0 KHz
Bit depth : 16 bits
Compression mode : Lossy
Stream size : 197 MiB (9%)
Alignment : Split accross interleaves
Interleave, duration : 42 ms (1.00 video frame)
Interleave, preload duration : 500 ms

Скриншот c названием фильма

Скриншоты

Вы не можете начинать темы
Вы не можете отвечать на сообщения
Вы не можете редактировать свои сообщения
Вы не можете удалять свои сообщения
Вы не можете голосовать в опросах
Вы не можете прикреплять файлы к сообщениям
Вы можете скачивать файлы
!ВНИМАНИЕ!

Сайт не предоставляет электронные версии произведений, а занимается лишь коллекционированием и каталогизацией ссылок, присылаемых и публикуемых на форуме нашими читателями. Если вы являетесь правообладателем какого-либо представленного материала и не желаете, чтобы ссылка на него находилась в нашем каталоге, свяжитесь с нами, и мы незамедлительно удалим ее. Файлы для обмена на трекере предоставлены пользователями сайта, и администрация не несет ответственности за их содержание. Просьба не заливать файлы, защищенные авторскими правами, а также файлы нелегального содержания!

Искали программы, игры, дополнения, музыка mp3, аниме, аудио книги, журналы? Добро пожаловать на свободный торрент трекер Torrents, у нас можно скачать бесплатно, без смс и регистрации и прочих ограничений лучшие, отборные сборки программ, игр. Скачать торрентом не составит труда даже не опытному пользователю. Раздачи ежедневно обновляются, только лучшие и качественные раздачи, подробные описания и скриншоты. Огромная коллекция программ для работы со звуком, графикой, дизайном, а так же множество плагинов и инструментов к ним с подробной инструкцией и рекомендациями. Прошивки для навигаторов, карты. Разнообразные игры, для Windows, Linux. В коллекцие есть и старые игры любых жанров, Rpg, Action, Shooter, strategy Множество дополнений, модификаций, сценариев для популярных игр в жанре экш, рпг, гонки, стратегии, логические игры. Множество аддонов и сценариев для Microsoft Flight Simulator Большая коллекция книг, учебников. Если нет возможности купить печатное издание - смело скачивайте цифровую версию книги или, быть может, журнала. Не любите читать - можно загрузить бесплатно аудикнигу. Для веб дизайнеров и программистов так же найдется множество специализированного софта, таких как: редакторы с подсветкой, среды программирования, компоненты, системы управления базами данных, разнообразные скрипты и шаблоны. Не так давно у нас появился материал для автолюбителей и владельцев мото - оригинальные и неоригинальные каталоги запчастей, книги и журналы по ремонту и обслуживанию, видеоуроки, статьи по чип тюнингу, прошивкам. Процедура получения контента элементарная, достаточно просто скачать торрент файл и добавить его в загрузку в вашем торрент клиенте. Если у вас нет специального торрент клиента, вы можете его скачать у нас.