Престол / Singhasan (Кришна Гхаттаманени / Krishna Ghattamaneni) [1986, Индия, Приключения, сказка, мелодрама, WEBRip 720p] VO + Sub Rus (на песни) 

Цитировать
Престол / Singhasan- Страна: Индия
Жанр: Приключения, сказка, мелодрама
Год выпуска: 1986
Продолжительность: 02:41:45-Перевод: Одноголосый закадровый
Субтитры: русские на песни-Режиссер: Кришна Гхаттаманени / Krishna Ghattamaneni-В ролях: Джитендра, Джая Прада, Мандакини, Вахида Рехман, Пран, Амджад Кхан, Шакти Капур, Кадер Кхан, Суджит Кумар, Шрирам Лагу, Бхарат Бхушан, Лина Дас, Гульшан Гровер, Правин Кумар-Описание: У королевства Дашрана есть храбрый полководец Викрам Сингх. Принцесса Алакнанда Деви любит его. Глава правительства хочет увидеть на престоле княжества своего сына. Но пока Викрам Сингх жив, этим планам не осуществиться. Он находит выход: заманивает Викрама в ловушку и находит лжесвидетелей, которые дают показания, что Викрам посягал на жизнь принцессы. Полководец сослан куда подальше. Он случайно оказывается в княжестве Аванти. Тут живёт наследный принц Адитья Вардхана, как две капли воды похожий на Викрама. Королевский Гуру хочет посадить на трон своего сына. И, опять, Викрам Сингх мешает осуществлению коварного плана. Герою предстоит пережить много опасных приключений, дабы распутать клубок коварных дворцовых интриг…
Сэмпл: http://multi-up.com/1140714
Качество видео: WEBRip 720p
Формат видео: MKV
Видео: MPEG-4 AVC, 1280x720 (16:9), 25.000 fps, 1640 Kbps, 0.071 bits/pixel
Аудио: 48 kHz, AC3 Dolby Digital, 2 ch, 192 Kbps--Озвучка субтитров: Nastia
Перевод субтитров: керелис
Материалы, работа с аудио: larisa_k
Релиз-группа: --

MediaInfo

General
Complete name : Downloads\PRESTOL.1986.WEBRip.x264.BWTorrents.mkv
Format : Matroska
Format version : Version 2
File size : 2.11 GiB
Duration : 2h 41mn
Overall bit rate : 1 869 Kbps
Encoded date : UTC 2017-02-05 12:02:55
Writing application : mkvmerge v5.4.0 ('Piper') built on Mar 10 2012 13:34:39
Writing library : Lavf56.25.101
Video #1
ID : 1
Format : AVC
Format/Info : Advanced Video Codec
Format profile : Main@L3.1
Format settings, CABAC : Yes
Format settings, ReFrames : 3 frames
Muxing mode : Header stripping
Codec ID : V_MPEG4/ISO/AVC
Duration : 2h 41mn
Bit rate : 1 640 Kbps
Width : 1 280 pixels
Height : 720 pixels
Display aspect ratio : 16:9
Frame rate mode : Constant
Frame rate : 25.000 fps
Color space : YUV
Chroma subsampling : 4:2:0
Bit depth : 8 bits
Scan type : Progressive
Bits/(Pixel*Frame) : 0.071
Stream size : 1.85 GiB (88%)
Title : Престол / Singhasan (1986) BWTorrents
Default : Yes
Forced : Yes
Audio #2
ID : 2
Format : AC-3
Format/Info : Audio Coding 3
Mode extension : CM (complete main)
Format settings, Endianness : Big
Muxing mode : Header stripping
Codec ID : A_AC3
Duration : 2h 41mn
Bit rate mode : Constant
Bit rate : 192 Kbps
Channel(s) : 2 channels
Channel positions : Front: L R
Sampling rate : 48.0 KHz
Bit depth : 16 bits
Compression mode : Lossy
Stream size : 222 MiB (10%)
Title : Престол / Singhasan (1986) BWTorrents
Language : Russian
Default : Yes
Forced : Yes
Text #3
ID : 3
Format : ASS
Codec ID : S_TEXT/ASS
Codec ID/Info : Advanced Sub Station Alpha
Compression mode : Lossless
Title : Престол / Singhasan (1986) =песни=
Language : Russian
Default : Yes
Forced : Yes

Скриншот c названием фильма

Скриншоты

Вы не можете начинать темы
Вы не можете отвечать на сообщения
Вы не можете редактировать свои сообщения
Вы не можете удалять свои сообщения
Вы не можете голосовать в опросах
Вы не можете прикреплять файлы к сообщениям
Вы можете скачивать файлы
!ВНИМАНИЕ!

Сайт не предоставляет электронные версии произведений, а занимается лишь коллекционированием и каталогизацией ссылок, присылаемых и публикуемых на форуме нашими читателями. Если вы являетесь правообладателем какого-либо представленного материала и не желаете, чтобы ссылка на него находилась в нашем каталоге, свяжитесь с нами, и мы незамедлительно удалим ее. Файлы для обмена на трекере предоставлены пользователями сайта, и администрация не несет ответственности за их содержание. Просьба не заливать файлы, защищенные авторскими правами, а также файлы нелегального содержания!

Искали программы, игры, дополнения, музыка mp3, аниме, аудио книги, журналы? Добро пожаловать на свободный торрент трекер Torrents, у нас можно скачать бесплатно, без смс и регистрации и прочих ограничений лучшие, отборные сборки программ, игр. Скачать торрентом не составит труда даже не опытному пользователю. Раздачи ежедневно обновляются, только лучшие и качественные раздачи, подробные описания и скриншоты. Огромная коллекция программ для работы со звуком, графикой, дизайном, а так же множество плагинов и инструментов к ним с подробной инструкцией и рекомендациями. Прошивки для навигаторов, карты. Разнообразные игры, для Windows, Linux. В коллекцие есть и старые игры любых жанров, Rpg, Action, Shooter, strategy Множество дополнений, модификаций, сценариев для популярных игр в жанре экш, рпг, гонки, стратегии, логические игры. Множество аддонов и сценариев для Microsoft Flight Simulator Большая коллекция книг, учебников. Если нет возможности купить печатное издание - смело скачивайте цифровую версию книги или, быть может, журнала. Не любите читать - можно загрузить бесплатно аудикнигу. Для веб дизайнеров и программистов так же найдется множество специализированного софта, таких как: редакторы с подсветкой, среды программирования, компоненты, системы управления базами данных, разнообразные скрипты и шаблоны. Не так давно у нас появился материал для автолюбителей и владельцев мото - оригинальные и неоригинальные каталоги запчастей, книги и журналы по ремонту и обслуживанию, видеоуроки, статьи по чип тюнингу, прошивкам. Процедура получения контента элементарная, достаточно просто скачать торрент файл и добавить его в загрузку в вашем торрент клиенте. Если у вас нет специального торрент клиента, вы можете его скачать у нас.