Талисман Удачи / Счастливая звезда / Случайное совпадение / Kismat Konnection (Азиз Мирза / Aziz Mirza) [2008, Индия, Драма, мелодрама, мюзикл, HDRip] DVO 

Цитировать
Талисман Удачи / Kismat Konnection -Страна: Индия, Tips Films Pvt. Ltd., Tips Industries
Жанр: Драма, мелодрама, мюзикл
Год выпуска: 2008
Продолжительность: 02:31:11-Перевод: Профессиональный (двухголосый, закадровый)
Субтитры: нет
Оригинальная аудиодорожка: нет-Режиссер: Азиз Мирза / Aziz Mirza-В ролях: Хидер Али, Видья Балан, Джухи Чавла, Боман Ирани, Шахид Капур, Шахрукх Кхан, Вишал Малхотра, Ом Пури, Химани Шивпури-Описание: Это история об архитекторе Радже Мальхотра. Он патологический неудачник. Будильник не сработал, в душе закончилась вода, сломалась машина по пути на работу, да и клиентами Бог не жалует. Его подруга Хасина утверждает, что он родился под несчастливой звездой и советует ему найти человека, который может изменить его жизнь. Так Радж встречает Прийю — девушку, всегда готовую помочь. После знакомства с Прийей жизнь Раджа резко меняется…-Доп. информация:

Автор рипа: MECHANICAL ENGINEER
-
Качество видео: HDRip
Формат видео: AVI
Видео: 720 x 304; 24.000 fps; 1674 kbps; 0.32 bit/pixel
Аудио: 48 kHz; 5.1 ch; 384.00 kbps; AC3 Dolby Digital
Размер файла: 2233.83 Mb (1/2 DVD5)

MediaInfo

Format                                   : AVI
Format/Info                              : Audio Video Interleave
Format profile                           : OpenDML
File size                                : 2.18 GiB
Duration                                 : 2h 31mn
Overall bit rate                         : 2 066 Kbps
Movie name                               : Талисман Удачи / Kismat Konnection (2008)
Director                                 : MECHANICAL ENGINEER (BDRip 720)
Writing application                      : VirtualDubMod 1.5.10.3 | www.virtualdub-fr.org || (build 2550/release)
Original source form/Name                : драма, мелодрама, комедия
Copyright                                : Индия
Comment                                  : 27.10.2015
Video
ID                                       : 0
Format                                   : MPEG-4 Visual
Format profile                           : Advanced Simple@L5
Format settings, BVOP                    : 1
Format settings, QPel                    : No
Format settings, GMC                     : No warppoints
Format settings, Matrix                  : Custom
Codec ID                                 : XVID
Codec ID/Hint                            : XviD
Duration                                 : 2h 31mn
Bit rate                                 : 1 670 Kbps
Width                                    : 720 pixels
Height                                   : 304 pixels
Display aspect ratio                     : 2.35:1
Frame rate                               : 24.000 fps
Color space                              : YUV
Chroma subsampling                       : 4:2:0
Bit depth                                : 8 bits
Scan type                                : Progressive
Compression mode                         : Lossy
Bits/(Pixel*Frame)                       : 0.318
Stream size                              : 1.76 GiB (81%)
Writing library                          : XviD 65
Audio
ID                                       : 1
Format                                   : AC-3
Format/Info                              : Audio Coding 3
Mode extension                           : CM (complete main)
Format settings, Endianness              : Big
Codec ID                                 : 2000
Duration                                 : 2h 31mn
Bit rate mode                            : Constant
Bit rate                                 : 384 Kbps
Channel(s)                               : 6 channels
Channel positions                        : Front: L C R, Side: L R, LFE
Sampling rate                            : 48.0 KHz
Bit depth                                : 16 bits
Compression mode                         : Lossy
Stream size                              : 415 MiB (19%)
Alignment                                : Split accross interleaves
Interleave, duration                     : 42 ms (1.00 video frame)
Interleave, preload duration             : 500 ms

Скриншоты на fastpic (превью - увеличение по клику):




Скриншоты на radikal (превью - увеличение по клику):




ПРИЯТНОГО ПРОСМОТРА!
Вы не можете начинать темы
Вы не можете отвечать на сообщения
Вы не можете редактировать свои сообщения
Вы не можете удалять свои сообщения
Вы не можете голосовать в опросах
Вы не можете прикреплять файлы к сообщениям
Вы можете скачивать файлы
!ВНИМАНИЕ!

Сайт не предоставляет электронные версии произведений, а занимается лишь коллекционированием и каталогизацией ссылок, присылаемых и публикуемых на форуме нашими читателями. Если вы являетесь правообладателем какого-либо представленного материала и не желаете, чтобы ссылка на него находилась в нашем каталоге, свяжитесь с нами, и мы незамедлительно удалим ее. Файлы для обмена на трекере предоставлены пользователями сайта, и администрация не несет ответственности за их содержание. Просьба не заливать файлы, защищенные авторскими правами, а также файлы нелегального содержания!

Искали программы, игры, дополнения, музыка mp3, аниме, аудио книги, журналы? Добро пожаловать на свободный торрент трекер Torrents, у нас можно скачать бесплатно, без смс и регистрации и прочих ограничений лучшие, отборные сборки программ, игр. Скачать торрентом не составит труда даже не опытному пользователю. Раздачи ежедневно обновляются, только лучшие и качественные раздачи, подробные описания и скриншоты. Огромная коллекция программ для работы со звуком, графикой, дизайном, а так же множество плагинов и инструментов к ним с подробной инструкцией и рекомендациями. Прошивки для навигаторов, карты. Разнообразные игры, для Windows, Linux. В коллекцие есть и старые игры любых жанров, Rpg, Action, Shooter, strategy Множество дополнений, модификаций, сценариев для популярных игр в жанре экш, рпг, гонки, стратегии, логические игры. Множество аддонов и сценариев для Microsoft Flight Simulator Большая коллекция книг, учебников. Если нет возможности купить печатное издание - смело скачивайте цифровую версию книги или, быть может, журнала. Не любите читать - можно загрузить бесплатно аудикнигу. Для веб дизайнеров и программистов так же найдется множество специализированного софта, таких как: редакторы с подсветкой, среды программирования, компоненты, системы управления базами данных, разнообразные скрипты и шаблоны. Не так давно у нас появился материал для автолюбителей и владельцев мото - оригинальные и неоригинальные каталоги запчастей, книги и журналы по ремонту и обслуживанию, видеоуроки, статьи по чип тюнингу, прошивкам. Процедура получения контента элементарная, достаточно просто скачать торрент файл и добавить его в загрузку в вашем торрент клиенте. Если у вас нет специального торрент клиента, вы можете его скачать у нас.