Чокнутый / Ghanchakkar (Радж Кумар Гупта / Raj Kumar Gupta) [2013, Индия, Триллер, комедия, криминал, DVDRip] DVO + Sub Rus (на песни) 

Цитировать
Чокнутый / Ghanchakkar
Страна: Индия
Жанр: Триллер, комедия, криминал
Год выпуска: 2013
Продолжительность: 02:15:08
Перевод: Профессиональный (двухголосый закадровый)
Субтитры: русские (внешние, только на тексты песен)
Режиссер: Радж Кумар Гупта / Raj Kumar Gupta
В ролях: Намит Дас, Эмран Хашми, Видья Балан, Амар Каушик, Парвин Дабас, Махабану Моди-Котвал, Раджеш Шарма, Шашанк Шенде, Раджкумар Гупта, Викрам Кочхар, Тарун Дубеджа
Описание: Санджу — мастер взломщик, хочет уйти из карьеры преступника, и он решает объединиться с двумя опасными преступниками для совершения одного последнего ограбления. Это ограбление банка, и это будет гарантировать, что он никогда не будет беспокоиться о деньгах. Ограбление идет успешно и все идет по плану. Санджу должен сохранить деньги. И три месяца спустя, его сообщники вернулись, чтобы забрать свою долю добычи, но Санджу отказывается даже признать их! Они понимают, что Санджу страдает от сильной амнезии и решили остаться с ним и его женой, пока Санджу не вспомнит, где он спрятал деньги…
Доп. информация: Запись звука с т/к Bollywood HD и его сведение - oktober
Перевод субтитров к песням: Rummata (Спасибо!)
Сэмпл: http://multi-up.com/1088935
Качество видео: DVDRip
Формат видео: AVI
Видео: XviD build 50, 720x304 (2.37:1), 23.976 fps, 1309 kbps avg
Аудио: AC3 Dolby Digital, 48 kHz, 2/0 (L,R) ch, 256.00 kbps

MediaInfo

General
Complete name : F:\Choknutiy.2013.XviD.DVDRip\Choknutiy.2013.XviD.DVDRip.avi
Format : AVI
Format/Info : Audio Video Interleave
File size : 1.49 GiB
Duration : 2h 15mn
Overall bit rate : 1 575 Kbps
Writing application : VirtualDubMod 1.5.10.2 (build 2540/release)
Writing library : VirtualDubMod build 2540/release
Video
ID : 0
Format : MPEG-4 Visual
Format profile : AdvancedSimple@L5
Format settings, BVOP : Yes
Format settings, QPel : No
Format settings, GMC : No warppoints
Format settings, Matrix : Default (H.263)
Codec ID : XVID
Codec ID/Hint : XviD
Duration : 2h 15mn
Bit rate : 1 309 Kbps
Width : 720 pixels
Height : 304 pixels
Display aspect ratio : 2.35
Frame rate : 23.976 fps
Resolution : 24 bits
Colorimetry : 4:2:0
Scan type : Progressive
Bits/(Pixel*Frame) : 0.249
Stream size : 1.24 GiB (83%)
Writing library : XviD 1.2.1 (UTC 2008-12-04)
Audio
ID : 1
Format : AC-3
Format/Info : Audio Coding 3
Codec ID : 2000
Duration : 2h 15mn
Bit rate mode : Constant
Bit rate : 256 Kbps
Channel(s) : 2 channels
Channel positions : L R
Sampling rate : 48.0 KHz
Stream size : 247 MiB (16%)
Alignment : Split accross interleaves
Interleave, duration : 42 ms (1.00 video frame)
Interleave, preload duration : 500 ms

Скриншот c названием фильма

Скриншоты

Вы не можете начинать темы
Вы не можете отвечать на сообщения
Вы не можете редактировать свои сообщения
Вы не можете удалять свои сообщения
Вы не можете голосовать в опросах
Вы не можете прикреплять файлы к сообщениям
Вы можете скачивать файлы
!ВНИМАНИЕ!

Сайт не предоставляет электронные версии произведений, а занимается лишь коллекционированием и каталогизацией ссылок, присылаемых и публикуемых на форуме нашими читателями. Если вы являетесь правообладателем какого-либо представленного материала и не желаете, чтобы ссылка на него находилась в нашем каталоге, свяжитесь с нами, и мы незамедлительно удалим ее. Файлы для обмена на трекере предоставлены пользователями сайта, и администрация не несет ответственности за их содержание. Просьба не заливать файлы, защищенные авторскими правами, а также файлы нелегального содержания!

Искали программы, игры, дополнения, музыка mp3, аниме, аудио книги, журналы? Добро пожаловать на свободный торрент трекер Torrents, у нас можно скачать бесплатно, без смс и регистрации и прочих ограничений лучшие, отборные сборки программ, игр. Скачать торрентом не составит труда даже не опытному пользователю. Раздачи ежедневно обновляются, только лучшие и качественные раздачи, подробные описания и скриншоты. Огромная коллекция программ для работы со звуком, графикой, дизайном, а так же множество плагинов и инструментов к ним с подробной инструкцией и рекомендациями. Прошивки для навигаторов, карты. Разнообразные игры, для Windows, Linux. В коллекцие есть и старые игры любых жанров, Rpg, Action, Shooter, strategy Множество дополнений, модификаций, сценариев для популярных игр в жанре экш, рпг, гонки, стратегии, логические игры. Множество аддонов и сценариев для Microsoft Flight Simulator Большая коллекция книг, учебников. Если нет возможности купить печатное издание - смело скачивайте цифровую версию книги или, быть может, журнала. Не любите читать - можно загрузить бесплатно аудикнигу. Для веб дизайнеров и программистов так же найдется множество специализированного софта, таких как: редакторы с подсветкой, среды программирования, компоненты, системы управления базами данных, разнообразные скрипты и шаблоны. Не так давно у нас появился материал для автолюбителей и владельцев мото - оригинальные и неоригинальные каталоги запчастей, книги и журналы по ремонту и обслуживанию, видеоуроки, статьи по чип тюнингу, прошивкам. Процедура получения контента элементарная, достаточно просто скачать торрент файл и добавить его в загрузку в вашем торрент клиенте. Если у вас нет специального торрент клиента, вы можете его скачать у нас.