Испытание временем / Waqt (Яш Чопра / Yash Chopra) [1965, Индия, мелодрама, драма, детектив, семейный, DVDRip] MVO + Original 

Цитировать
Испытание временем / Waqt
Страна: Индия
Производство: B.R. Films, United Producers
Жанр: мелодрама, драма, детектив, семейный
Год выпуска: 1965
Продолжительность: 02:58:33
Перевод: Профессиональный (многоголосый закадровый)
Субтитры: нет
Оригинальная аудиодорожка: Индийский (Хинди)
Режиссер: Яш Чопра / Yash Chopra
В ролях: Сунил Датт, Садхана, Радж Кумар, Шаши Капур, Шармила Тагор, Балрадж Сахни, Ачала Сачдев, Рехман, Манмохан Кришна, Лила Читнис, Мадан Пури, Шашикала, Эрика Лаль, Мотилал, Дживан, Сумати Гупте, Сурендра Натх, Мубарак, Джагдиш Радж, Гари Шивдасани, Бадри Прасад, Равикант, Сундип, Раджу, Актар-ул-иман, Актар Мирза, Пран Мехра, Капур, Рохит Чопра, Джанкидас
Описание: Герой фильма — Лала Кедарнат являет собой образ человека, сотворившего себя и свою семью. Он является зажиточным торговцем и кажется, что он ухватил судьбу за хвост. Но судьба подбрасывает ему и его семье тяжелое испытание — чудовищное землетрясение. Весь мир превратился в прах. Его старший сын Раджа превратился в сироту и был вынужден прожить всю оставшуюся жизнь взломщиком. Средний сын Рави был усыновлен богатыми родителями и превратился в завидного жениха… Младший сын Виджай вынужден зарабатывать на жизнь извозом и это помогает выжить ему и его старенькой матери. А сам глава семьи — Лала Кедарнат содержится в тюрьме по подозрению в убийстве. И только время способно объединить родных людей, с достоинством выдержавших испытание временем…
Доп. информация: Источник: DVD9 (без перевода) reza74 (Спасибо)
Русская звуковая дорожка с VHS
Рип, сведение и синхронизация звука: pca1962
Награды и номинации:
Filmfare Лучшая режиссерская премия - Яш Чопра
Filmfare Лучший актер второго плана - Радж Кумар
Filmfare Лучшая история - Ахтар Мирза
Filmfare Лучший Диалог - Ахтар-ул-Иман
Filmfare Лучший Оператор за Цвет фильма - Дхарам Чопра
Filmfare номинации за лучший фильм
Filmfare Номинация за лучшую женскую роль - Садханы
Индийский блокбастер 1965-го года. Фильм занял первое место в прокате в 1965 году и стала первой концепцией фильма с несколькими звездами.
Сэмпл: http://yadi.sk/i/txe4qt0F3MBMA8
Качество видео: DVDRip
Формат видео: AVI
Видео: XviD, 1514 Кбит/с, 720x544 (4:3), 23.976 fps
Аудио 1: Русский - MP3, 128 Кбит, 2 ch (L R), 44.1 kHz
Аудио 2: Индийский (Хинди) - MP3, 128 Кбит, 2 ch (L R), 44.1 kHz

MediaInfo

General
Complete name : Испытание временем Waqt Индия, 1965, мелодрама, драма, детектив, семейный.avi
Format : AVI
Format/Info : Audio Video Interleave
Format profile : OpenDML
File size : 2.23 GiB
Duration : 2 h 58 min
Overall bit rate : 1 788 kb/s
Writing application : VirtualDubMod 1.5.10.2 (build 2540/release)
Writing library : VirtualDubMod build 2540/release
Video
ID : 0
Format : MPEG-4 Visual
Format profile : Advanced Simple@L5
Format settings, BVOP : 2
Format settings, QPel : No
Format settings, GMC : No warppoints
Format settings, Matrix : Default (H.263)
Codec ID : XVID
Codec ID/Hint : XviD
Duration : 2 h 58 min
Bit rate : 1 514 kb/s
Width : 720 pixels
Height : 544 pixels
Display aspect ratio : 4:3
Frame rate : 23.976 (24000/1001) FPS
Color space : YUV
Chroma subsampling : 4:2:0
Bit depth : 8 bits
Scan type : Progressive
Compression mode : Lossy
Bits/(Pixel*Frame) : 0.161
Stream size : 1.89 GiB (85%)
Writing library : XviD 1.2.1 (UTC 2008-12-04)
Audio #1
ID : 1
Format : MPEG Audio
Format version : Version 1
Format profile : Layer 3
Mode : Joint stereo
Mode extension : MS Stereo
Codec ID : 55
Codec ID/Hint : MP3
Duration : 2 h 58 min
Bit rate mode : Constant
Bit rate : 128 kb/s
Channel(s) : 2 channels
Sampling rate : 44.1 kHz
Compression mode : Lossy
Stream size : 163 MiB (7%)
Alignment : Split accross interleaves
Interleave, duration : 42 ms (1.00 video frame)
Interleave, preload duratio : 500 ms
Audio #2
ID : 2
Format : MPEG Audio
Format version : Version 1
Format profile : Layer 3
Mode : Joint stereo
Mode extension : MS Stereo
Codec ID : 55
Codec ID/Hint : MP3
Duration : 2 h 58 min
Bit rate mode : Constant
Bit rate : 128 kb/s
Channel(s) : 2 channels
Sampling rate : 44.1 kHz
Compression mode : Lossy
Stream size : 163 MiB (7%)
Alignment : Split accross interleaves
Interleave, duration : 42 ms (1.00 video frame)
Interleave, preload duratio : 500 ms

Скриншот c названием фильма

Скриншоты

Ссылки на мои файлы http://rutracker.org/forum/search.php?uid=18026582&myt=1
Вы не можете начинать темы
Вы не можете отвечать на сообщения
Вы не можете редактировать свои сообщения
Вы не можете удалять свои сообщения
Вы не можете голосовать в опросах
Вы не можете прикреплять файлы к сообщениям
Вы можете скачивать файлы
!ВНИМАНИЕ!

Сайт не предоставляет электронные версии произведений, а занимается лишь коллекционированием и каталогизацией ссылок, присылаемых и публикуемых на форуме нашими читателями. Если вы являетесь правообладателем какого-либо представленного материала и не желаете, чтобы ссылка на него находилась в нашем каталоге, свяжитесь с нами, и мы незамедлительно удалим ее. Файлы для обмена на трекере предоставлены пользователями сайта, и администрация не несет ответственности за их содержание. Просьба не заливать файлы, защищенные авторскими правами, а также файлы нелегального содержания!

Искали программы, игры, дополнения, музыка mp3, аниме, аудио книги, журналы? Добро пожаловать на свободный торрент трекер Torrents, у нас можно скачать бесплатно, без смс и регистрации и прочих ограничений лучшие, отборные сборки программ, игр. Скачать торрентом не составит труда даже не опытному пользователю. Раздачи ежедневно обновляются, только лучшие и качественные раздачи, подробные описания и скриншоты. Огромная коллекция программ для работы со звуком, графикой, дизайном, а так же множество плагинов и инструментов к ним с подробной инструкцией и рекомендациями. Прошивки для навигаторов, карты. Разнообразные игры, для Windows, Linux. В коллекцие есть и старые игры любых жанров, Rpg, Action, Shooter, strategy Множество дополнений, модификаций, сценариев для популярных игр в жанре экш, рпг, гонки, стратегии, логические игры. Множество аддонов и сценариев для Microsoft Flight Simulator Большая коллекция книг, учебников. Если нет возможности купить печатное издание - смело скачивайте цифровую версию книги или, быть может, журнала. Не любите читать - можно загрузить бесплатно аудикнигу. Для веб дизайнеров и программистов так же найдется множество специализированного софта, таких как: редакторы с подсветкой, среды программирования, компоненты, системы управления базами данных, разнообразные скрипты и шаблоны. Не так давно у нас появился материал для автолюбителей и владельцев мото - оригинальные и неоригинальные каталоги запчастей, книги и журналы по ремонту и обслуживанию, видеоуроки, статьи по чип тюнингу, прошивкам. Процедура получения контента элементарная, достаточно просто скачать торрент файл и добавить его в загрузку в вашем торрент клиенте. Если у вас нет специального торрент клиента, вы можете его скачать у нас.