Кобра / Nagin (Раджкумар Кохли / Rajkumar Kohli) [1976, Индия, Мистика, фэнтези, боевик, триллер, DVDRip] MVO 

Цитировать
Кобра / Nagin
Страна: Индия
Производство: Shankar Movies
Жанр: Мистика, фэнтези, боевик, триллер, музыкальный
Год выпуска: 1976
Продолжительность: 02:23:01
Перевод: Профессиональный (многоголосый закадровый)
Субтитры: нет
Режиссер: Раджкумар Кохли / Rajkumar Kohli
В ролях: Сунил Датт, Фероз Кхан, Джитендра, Рина Рой, Рекха, Мумтаз, Йогита Бали, Винод Мехра, Кабир Беди, Санджай Кхан, Анил Дхаван, Према Нараян, Нилам Мехра, Прем Натх, Аруна Арани, Ранджит, Хина Каусар, Рупеш Кумар, Комилла Вирк, Сулочана Латкар, Марути Рао, Гюльшан Арора, Тун Тун, Сатиш Арора, Мастер Битту, Раджан Сетхи, Харбанс Даршан, Джагдип
Описание: Это история женщины, которая превращается в кобру, чтобы отомстить пяти мужчинам, убивших ее возлюбленного...С древнейших времён индийцы верят в мистическую силу кобр принимать образ человека. Они верят, что змеям не чужды такие чувства как любовь, привязанность, обида и месть. Это интригующая мистическая история о любви и мести. Всего лишь одна ошибка повлекла за собой ряд трагических событий.
Доп. информация: Источник: DVD5
Рип: pca1962
Сэмпл: http://yadi.sk/i/fI_UnlS03MBHoF
Качество видео: DVDRip
Формат видео: AVI
Видео: DivX 5, 1264 Кбит/с, 640x480 (4:3), 23.976 fps (Writing library: XviD 1.2.1)
Аудио: AC3, 192 Кбит/с, 2 ch (L R), 48.0 kHz

MediaInfo

General
Complete name : Кобра 1976 Индия, мистика, фэнтези, боевик, триллер.avi
Format : AVI
Format/Info : Audio Video Interleave
File size : 1.46 GiB
Duration : 2 h 23 min
Overall bit rate : 1 466 kb/s
Writing application : VirtualDubMod 1.5.10.3 | www.virtualdub-fr.org || (build 2550/release)
Writing library : VirtualDubMod build 2550/release
Video
ID : 0
Format : MPEG-4 Visual
Format profile : Advanced Simple@L5
Format settings, BVOP : 1
Format settings, QPel : No
Format settings, GMC : No warppoints
Format settings, Matrix : Default (MPEG)
Codec ID : DX50
Codec ID/Hint : DivX 5
Duration : 2 h 23 min
Bit rate : 1 264 kb/s
Width : 640 pixels
Height : 480 pixels
Display aspect ratio : 4:3
Frame rate : 23.976 (24000/1001) FPS
Color space : YUV
Chroma subsampling : 4:2:0
Bit depth : 8 bits
Scan type : Progressive
Compression mode : Lossy
Bits/(Pixel*Frame) : 0.172
Stream size : 1.26 GiB (86%)
Writing library : XviD 1.2.1 (UTC 2008-12-04)
Audio
ID : 1
Format : AC-3
Format/Info : Audio Coding 3
Format settings, Endianness : Big
Codec ID : 2000
Duration : 2 h 23 min
Bit rate mode : Constant
Bit rate : 192 kb/s
Channel(s) : 2 channels
Channel positions : Front: L R
Sampling rate : 48.0 kHz
Frame rate : 31.250 FPS (1536 SPF)
Bit depth : 16 bits
Compression mode : Lossy
Stream size : 196 MiB (13%)
Alignment : Split accross interleaves
Interleave, duration : 42 ms (1.00 video frame)
Interleave, preload duratio : 500 ms
Service kind : Complete Main

Скриншот c названием фильма

Скриншоты

Ссылки на мои файлы http://rutracker.org/forum/search.php?uid=18026582&myt=1
Вы не можете начинать темы
Вы не можете отвечать на сообщения
Вы не можете редактировать свои сообщения
Вы не можете удалять свои сообщения
Вы не можете голосовать в опросах
Вы не можете прикреплять файлы к сообщениям
Вы можете скачивать файлы
!ВНИМАНИЕ!

Сайт не предоставляет электронные версии произведений, а занимается лишь коллекционированием и каталогизацией ссылок, присылаемых и публикуемых на форуме нашими читателями. Если вы являетесь правообладателем какого-либо представленного материала и не желаете, чтобы ссылка на него находилась в нашем каталоге, свяжитесь с нами, и мы незамедлительно удалим ее. Файлы для обмена на трекере предоставлены пользователями сайта, и администрация не несет ответственности за их содержание. Просьба не заливать файлы, защищенные авторскими правами, а также файлы нелегального содержания!

Искали программы, игры, дополнения, музыка mp3, аниме, аудио книги, журналы? Добро пожаловать на свободный торрент трекер Torrents, у нас можно скачать бесплатно, без смс и регистрации и прочих ограничений лучшие, отборные сборки программ, игр. Скачать торрентом не составит труда даже не опытному пользователю. Раздачи ежедневно обновляются, только лучшие и качественные раздачи, подробные описания и скриншоты. Огромная коллекция программ для работы со звуком, графикой, дизайном, а так же множество плагинов и инструментов к ним с подробной инструкцией и рекомендациями. Прошивки для навигаторов, карты. Разнообразные игры, для Windows, Linux. В коллекцие есть и старые игры любых жанров, Rpg, Action, Shooter, strategy Множество дополнений, модификаций, сценариев для популярных игр в жанре экш, рпг, гонки, стратегии, логические игры. Множество аддонов и сценариев для Microsoft Flight Simulator Большая коллекция книг, учебников. Если нет возможности купить печатное издание - смело скачивайте цифровую версию книги или, быть может, журнала. Не любите читать - можно загрузить бесплатно аудикнигу. Для веб дизайнеров и программистов так же найдется множество специализированного софта, таких как: редакторы с подсветкой, среды программирования, компоненты, системы управления базами данных, разнообразные скрипты и шаблоны. Не так давно у нас появился материал для автолюбителей и владельцев мото - оригинальные и неоригинальные каталоги запчастей, книги и журналы по ремонту и обслуживанию, видеоуроки, статьи по чип тюнингу, прошивкам. Процедура получения контента элементарная, достаточно просто скачать торрент файл и добавить его в загрузку в вашем торрент клиенте. Если у вас нет специального торрент клиента, вы можете его скачать у нас.