Любовная история (Испытание любви) / Prem kahani (Радж Хосла / Raj Khosla) [1975, Индия, Драма, мелодрама, DVDRip] Dub + Sub Rus 

Цитировать
Любовная история (Испытание любви) / Prem kahani
Страна: Индия
Производство: Khosla Enterprises
Жанр: Драма, мелодрама
Год выпуска: 1975
Продолжительность: 02:35:56
Перевод: Профессиональный (дублированный)
Субтитры: русские
Оригинальная аудиодорожка: Индийский (Хинди)
Режиссер: Радж Хосла / Raj Khosla
В ролях: Раджеш Кханна, Мумтаз, Шаши Капур, Винод Кханна, Сингх, Трилок Капур, Дулари, Лила Мишра, Юнус Парвез, Наваб, Пурнима
Описание: Колониальная Индия. Последние годы английского владычества. Кампания народного неповиновения набирает силу. Молодой поэт Раджеш далёк от политики, он влюблён в красавицу Камини, но смерть старшего брата, исповедовавшего идеи ненасильственного сопротивления, от британской пули, делает его мстителем, он берётся за оружие. Отказавшись от возлюбленной, он прославляется как неумолимый мститель и борец за независимость. Все силы армии и полиции брошены на его поимку, он загнан. Будучи ранен, он вынужден обратиться за помощью к лучшему другу-полицейскому инспектору,который принимает и прячет его в собственном доме. Его друг недавно женился и его жена-бывшая возлюбленная Раджеша... Prem Kahani - сага о любви и верности, о чистых помыслах и убеждениях, и о свидании с судьбой.
Доп. информация: Популярный фильм, побывавший в советском кинопрокате
Эта полная версия фильма. В советском прокате фильм назывался - Испытание любви . В советском варианте вырезано 14 минут материала. Данная версия больше советского прокатного варианта на 14 минут. По этой причине, в некоторых местах, перевод будет отсутствовать. Но есть русские субтитры. Не пугайтесь, если что. Всем приятного просмотра!
Риппер, сведение и синхронизация звука pca1962 / Русский звук взят с видеокассеты
Перевод субтитров: kasmevaade
Сэмпл: http://yadi.sk/i/y-oq5JwF3MC5zK
Качество видео: DVDRip
Формат видео: AVI
Видео: XviD, 1500 Кбит/с, 640x480 (4:3), 30 fps
Аудио: Русский - MP3, 2 ch, 160 Кбит/с, 32.0 kHz
Аудио 2: Индийский (Хинди) - MP3, 2 ch, 160 Кбит/с, 44.1 kHz
Формат субтитров: softsub (SRT)

MediaInfo

General
Complete name : Любовная история (Испытание любви) 1975, Индия, драма, мелодрама.avi
Format : AVI
Format/Info : Audio Video Interleave
Format profile : OpenDML
File size : 2.01 GiB
Duration : 2 h 35 min
Overall bit rate : 1 843 kb/s
Writing application : VirtualDubMod 1.5.10.2 (build 2540/release)
Writing library : VirtualDubMod build 2540/release
Video
ID : 0
Format : MPEG-4 Visual
Format profile : Simple@L3
Format settings, BVOP : No
Format settings, QPel : No
Format settings, GMC : No warppoints
Format settings, Matrix : Default (H.263)
Codec ID : XVID
Codec ID/Hint : XviD
Duration : 2 h 35 min
Bit rate : 1 500 kb/s
Width : 640 pixels
Height : 480 pixels
Display aspect ratio : 4:3
Frame rate : 30.000 FPS
Color space : YUV
Chroma subsampling : 4:2:0
Bit depth : 8 bits
Scan type : Progressive
Compression mode : Lossy
Bits/(Pixel*Frame) : 0.163
Stream size : 1.63 GiB (81%)
Writing library : XviD 1.2.1 (UTC 2008-12-04)
Audio #1
ID : 1
Format : MPEG Audio
Format version : Version 1
Format profile : Layer 3
Mode : Joint stereo
Codec ID : 55
Codec ID/Hint : MP3
Duration : 2 h 35 min
Bit rate mode : Constant
Bit rate : 160 kb/s
Channel(s) : 2 channels
Sampling rate : 32.0 kHz
Compression mode : Lossy
Stream size : 178 MiB (9%)
Alignment : Aligned on interleaves
Interleave, duration : 36 ms (1.08 video frame)
Interleave, preload duratio : 504 ms
Audio #2
ID : 2
Format : MPEG Audio
Format version : Version 1
Format profile : Layer 3
Mode : Joint stereo
Mode extension : MS Stereo
Codec ID : 55
Codec ID/Hint : MP3
Duration : 2 h 35 min
Bit rate mode : Constant
Bit rate : 160 kb/s
Channel(s) : 2 channels
Sampling rate : 44.1 kHz
Compression mode : Lossy
Stream size : 178 MiB (9%)
Alignment : Split accross interleaves
Interleave, duration : 33 ms (1.00 video frame)
Interleave, preload duratio : 500 ms
Writing library : LAME3.98.2

Скриншот c названием фильма

Скриншоты

[
Ссылки на мои файлы http://rutracker.org/forum/search.php?uid=18026582&myt=1
Вы не можете начинать темы
Вы не можете отвечать на сообщения
Вы не можете редактировать свои сообщения
Вы не можете удалять свои сообщения
Вы не можете голосовать в опросах
Вы не можете прикреплять файлы к сообщениям
Вы можете скачивать файлы
!ВНИМАНИЕ!

Сайт не предоставляет электронные версии произведений, а занимается лишь коллекционированием и каталогизацией ссылок, присылаемых и публикуемых на форуме нашими читателями. Если вы являетесь правообладателем какого-либо представленного материала и не желаете, чтобы ссылка на него находилась в нашем каталоге, свяжитесь с нами, и мы незамедлительно удалим ее. Файлы для обмена на трекере предоставлены пользователями сайта, и администрация не несет ответственности за их содержание. Просьба не заливать файлы, защищенные авторскими правами, а также файлы нелегального содержания!

Искали программы, игры, дополнения, музыка mp3, аниме, аудио книги, журналы? Добро пожаловать на свободный торрент трекер Torrents, у нас можно скачать бесплатно, без смс и регистрации и прочих ограничений лучшие, отборные сборки программ, игр. Скачать торрентом не составит труда даже не опытному пользователю. Раздачи ежедневно обновляются, только лучшие и качественные раздачи, подробные описания и скриншоты. Огромная коллекция программ для работы со звуком, графикой, дизайном, а так же множество плагинов и инструментов к ним с подробной инструкцией и рекомендациями. Прошивки для навигаторов, карты. Разнообразные игры, для Windows, Linux. В коллекцие есть и старые игры любых жанров, Rpg, Action, Shooter, strategy Множество дополнений, модификаций, сценариев для популярных игр в жанре экш, рпг, гонки, стратегии, логические игры. Множество аддонов и сценариев для Microsoft Flight Simulator Большая коллекция книг, учебников. Если нет возможности купить печатное издание - смело скачивайте цифровую версию книги или, быть может, журнала. Не любите читать - можно загрузить бесплатно аудикнигу. Для веб дизайнеров и программистов так же найдется множество специализированного софта, таких как: редакторы с подсветкой, среды программирования, компоненты, системы управления базами данных, разнообразные скрипты и шаблоны. Не так давно у нас появился материал для автолюбителей и владельцев мото - оригинальные и неоригинальные каталоги запчастей, книги и журналы по ремонту и обслуживанию, видеоуроки, статьи по чип тюнингу, прошивкам. Процедура получения контента элементарная, достаточно просто скачать торрент файл и добавить его в загрузку в вашем торрент клиенте. Если у вас нет специального торрент клиента, вы можете его скачать у нас.