Ради единственной Лейлы / Oka Laila Kosam (Виджай Кумар Конда / Vijay Kumar Konda) [2014, Индия, мелодрама, комедия, DVDRip] DVO 

Цитировать
Ради единственной Лейлы / Oka Laila Kosam Страна: Индия
Жанр: мелодрама, комедия
Год выпуска: 2014
Продолжительность: 02:25:55
Перевод: Любительский (двухголосый закадровый) DeadSno&Den904
Субтитры: Русские (на песни)
Режиссер: Виджай Кумар Конда / Vijay Kumar Konda
В ролях: Нага Чайтания, Пуджа Хегде, Суман, Саяджи Шинде, Али, Чалапатхи Рао, Др. Бхарат Редди, Аннапурна, Судха
Описание: Только что закончивший учебу Картик, решает сразу же уехать путешествовать, что найти себя и в полной мере насладиться свободой. По приезду в Индию, молодой парень случайно на улице видит красавицу Нандану, в которую без памяти влюбляется. Однако покорить сердце девушки не так уж и просто. Она напрочь отвергает любовь парня и всеми способами показывает ему свою неприязнь. Свою лепту в эти сложные отношения вносят родители молодых людей, когда однажды заявляют, что собираются их поженить…
Доп. информация: Озвучка: DeadSno&Den904
Фильм производства Annapurna Studios
Перевод и редакция: ❖ Honey&Haseena ❖
Фильм переведён и озвучен специально по заказу Хавы Домбаевой
Инициатива: РГ Honey&Haseena в содружестве с РГ Колобок
При просмотре фильма Вы получите отличное настроение и послушаете очень красивую музыку- - -Качество видео: DVDRip
Формат видео: AVI
Видео: XviD, 720x304, 1629 Кбит/с, 23.976 fps
Аудио: Русский - АС3, 192 Кбит/с, 2 ch (L R), 48 kHz
Формат субтитров: hardsub (неотключаемые) - русские (на песни)

MediaInfo

General
Complete name : Ради единственной Лейлы 2014, Индия, мелодрама, комедия.avi
Format : AVI
Format/Info : Audio Video Interleave
File size : 1.87 GiB
Duration : 2 h 25 min
Overall bit rate : 1 830 kb/s
Writing application : VirtualDubModRus 1.5.10.2 (build 2542/release)
Writing library : VirtualDub build 35491/release
Video
ID : 0
Format : xvid
Codec ID : xvid
Duration : 2 h 25 min
Bit rate : 1 629 kb/s
Width : 720 pixels
Height : 304 pixels
Display aspect ratio : 2.35:1
Frame rate : 23.976 (24000/1001) FPS
Bits/(Pixel*Frame) : 0.310
Stream size : 1.66 GiB (89%)
Audio
ID : 1
Format : AC-3
Format/Info : Audio Coding 3
Format settings, Endianness : Big
Codec ID : 2000
Duration : 2 h 25 min
Bit rate mode : Constant
Bit rate : 192 kb/s
Channel(s) : 2 channels
Channel positions : Front: L R
Sampling rate : 48.0 kHz
Frame rate : 31.250 FPS (1536 SPF)
Bit depth : 16 bits
Compression mode : Lossy
Stream size : 200 MiB (10%)
Alignment : Aligned on interleaves
Interleave, duration : 42 ms (1.00 video frame)
Interleave, preload duratio : 512 ms
Service kind : Complete Main

Скриншот c названием фильма

Ссылки на мои файлы Раздача
Вы не можете начинать темы
Вы не можете отвечать на сообщения
Вы не можете редактировать свои сообщения
Вы не можете удалять свои сообщения
Вы не можете голосовать в опросах
Вы не можете прикреплять файлы к сообщениям
Вы можете скачивать файлы
!ВНИМАНИЕ!

Сайт не предоставляет электронные версии произведений, а занимается лишь коллекционированием и каталогизацией ссылок, присылаемых и публикуемых на форуме нашими читателями. Если вы являетесь правообладателем какого-либо представленного материала и не желаете, чтобы ссылка на него находилась в нашем каталоге, свяжитесь с нами, и мы незамедлительно удалим ее. Файлы для обмена на трекере предоставлены пользователями сайта, и администрация не несет ответственности за их содержание. Просьба не заливать файлы, защищенные авторскими правами, а также файлы нелегального содержания!

Искали программы, игры, дополнения, музыка mp3, аниме, аудио книги, журналы? Добро пожаловать на свободный торрент трекер Torrents, у нас можно скачать бесплатно, без смс и регистрации и прочих ограничений лучшие, отборные сборки программ, игр. Скачать торрентом не составит труда даже не опытному пользователю. Раздачи ежедневно обновляются, только лучшие и качественные раздачи, подробные описания и скриншоты. Огромная коллекция программ для работы со звуком, графикой, дизайном, а так же множество плагинов и инструментов к ним с подробной инструкцией и рекомендациями. Прошивки для навигаторов, карты. Разнообразные игры, для Windows, Linux. В коллекцие есть и старые игры любых жанров, Rpg, Action, Shooter, strategy Множество дополнений, модификаций, сценариев для популярных игр в жанре экш, рпг, гонки, стратегии, логические игры. Множество аддонов и сценариев для Microsoft Flight Simulator Большая коллекция книг, учебников. Если нет возможности купить печатное издание - смело скачивайте цифровую версию книги или, быть может, журнала. Не любите читать - можно загрузить бесплатно аудикнигу. Для веб дизайнеров и программистов так же найдется множество специализированного софта, таких как: редакторы с подсветкой, среды программирования, компоненты, системы управления базами данных, разнообразные скрипты и шаблоны. Не так давно у нас появился материал для автолюбителей и владельцев мото - оригинальные и неоригинальные каталоги запчастей, книги и журналы по ремонту и обслуживанию, видеоуроки, статьи по чип тюнингу, прошивкам. Процедура получения контента элементарная, достаточно просто скачать торрент файл и добавить его в загрузку в вашем торрент клиенте. Если у вас нет специального торрент клиента, вы можете его скачать у нас.