Мать Индия / Mother India (Мехбуб Кхан / Mehboob Khan) [1957, Индия, драма, семейный, DVDRip] MVO + Original 

Цитировать
Мать Индия / Mother India
Страна: Индия
Производство: Mehboob Productions
Жанр: Драма, семейный
Год выпуска: 1957
Продолжительность: 02:54:35
Перевод: Профессиональный (многоголосый закадровый)
Субтитры: нет
Оригинальная аудиодорожка: Индийский (Хинди)
Режиссер: Мехбуб Кхан / Mehboob Khan
В ролях: Наргис, Сунил Датт, Раджендра Кумар, Радж Кумар, Канхайялал, Кумкум, Мукри, Джиллу Маа, Ситарадеви, Шаншаль, Шила Наик
Описание: Это история простой женщины Радхи, которая была брошена своим мужем. Тот лишился обеих рук во время инцидента в поле. Уйдя из дому, он оставил жену с двумя маленькими детьми на руках. Старший сын рос хорошим и усердным мальчиком, младший же сын был полной противоположностью старшего. На фоне материнской любви к обоим сыновьям развивается история выживания одинокой матери Радхи. Когда Радха только вышла замуж, ее свекровь заняла пятьсот рупий у местного ростовщика Сукхилала. Согласно договора, который свекровь подписала не читая, взамен процентов она должна была отдавать четверть будущего урожая. Пользуясь ее безграмотностью, Сукхилал вместо одной четверти в договоре прописал три четверти. Когда все выплыло наружу, деревенский сход принял сторону ростовщика. Таким образом Радхз осталась без средств к существованию.
Доп. информация:
слоган: «The Indian 'Gone with the Wind'»
Рип, сведение и синхронизация звука: pca1962
Премьера: 14 февраля 1957 - Индия
Июнь 1964 - СССР
Награды: Оскар, 1958 год
Номинации: Лучший фильм на иностранном языке — «Индия»
Карловы Вары, 1958 год
Победитель: Лучшая женская роль Наргис- - -Качество видео: DVDRip
Формат видео: AVI
Видео: XviD, 1000 Кбит/с, 560x416 (4:3), 23.976 fps
Аудио 1: Русский - MP3, 192 Кбит/с, 44.1 kHz, 2 ch (L R)
Аудио 2: Индийский (Хинди) - MP3, 192 Кбит/с, 44.1 kHz, 2 ch (L R)

MediaInfo

General
Complete name : Мать Индия 1957, Индия, драма.avi
Format : AVI
Format/Info : Audio Video Interleave
File size : 1.70 GiB
Duration : 2 h 54 min
Overall bit rate : 1 398 kb/s
Writing application : VirtualDubMod 1.5.10.2 (build 2540/release)
Writing library : VirtualDubMod build 2540/release
Video
ID : 0
Format : MPEG-4 Visual
Format profile : Advanced Simple@L5
Format settings, BVOP : 1
Format settings, QPel : No
Format settings, GMC : No warppoints
Format settings, Matrix : Default (H.263)
Muxing mode : Packed bitstream
Codec ID : XVID
Codec ID/Hint : XviD
Duration : 2 h 54 min
Bit rate : 1 000 kb/s
Width : 560 pixels
Height : 416 pixels
Display aspect ratio : 4:3
Frame rate : 23.976 (24000/1001) FPS
Color space : YUV
Chroma subsampling : 4:2:0
Bit depth : 8 bits
Scan type : Progressive
Compression mode : Lossy
Bits/(Pixel*Frame) : 0.179
Stream size : 1.22 GiB (72%)
Writing library : XviD 1.2.0.dev47 (UTC 2006-11-01)
Audio #1
ID : 1
Format : MPEG Audio
Format version : Version 1
Format profile : Layer 3
Codec ID : 55
Codec ID/Hint : MP3
Duration : 2 h 54 min
Bit rate mode : Constant
Bit rate : 192 kb/s
Channel(s) : 2 channels
Sampling rate : 44.1 kHz
Compression mode : Lossy
Stream size : 240 MiB (14%)
Alignment : Split accross interleaves
Interleave, duration : 42 ms (1.00 video frame)
Interleave, preload duratio : 500 ms
Audio #2
ID : 2
Format : MPEG Audio
Format version : Version 1
Format profile : Layer 3
Mode : Joint stereo
Mode extension : MS Stereo
Codec ID : 55
Codec ID/Hint : MP3
Duration : 2 h 54 min
Bit rate mode : Constant
Bit rate : 192 kb/s
Channel(s) : 2 channels
Sampling rate : 44.1 kHz
Compression mode : Lossy
Stream size : 239 MiB (14%)
Alignment : Aligned on interleaves
Interleave, duration : 42 ms (1.00 video frame)
Interleave, preload duratio : 522 ms
Writing library : LAME3.97

Скриншот c названием фильма

Скриншоты

Сравнение

Сравнение с раздачей: Мать Индия / Mother India (Мехбуб Кхан) [1957, Индия, драма, VHSRip]
1. Разрешение у видео там ниже 432x320 против 560x416
2. Качество картинки там хуже и размер намного больше
3. Перевод тот же.
AVI DVDRip - ЗДЕСЬ:

AVI VHSRip - ТАМ:

Сравнение Screenshotcomparison

http://screenshotcomparison.com/comparison/116833
http://rutracker.org/forum/viewtopic.php?t=770918
раздача хуже по качеству VHSRip и большого размера
Ссылки на мои файлы Раздача
Вы не можете начинать темы
Вы не можете отвечать на сообщения
Вы не можете редактировать свои сообщения
Вы не можете удалять свои сообщения
Вы не можете голосовать в опросах
Вы не можете прикреплять файлы к сообщениям
Вы можете скачивать файлы
!ВНИМАНИЕ!

Сайт не предоставляет электронные версии произведений, а занимается лишь коллекционированием и каталогизацией ссылок, присылаемых и публикуемых на форуме нашими читателями. Если вы являетесь правообладателем какого-либо представленного материала и не желаете, чтобы ссылка на него находилась в нашем каталоге, свяжитесь с нами, и мы незамедлительно удалим ее. Файлы для обмена на трекере предоставлены пользователями сайта, и администрация не несет ответственности за их содержание. Просьба не заливать файлы, защищенные авторскими правами, а также файлы нелегального содержания!

Искали программы, игры, дополнения, музыка mp3, аниме, аудио книги, журналы? Добро пожаловать на свободный торрент трекер Torrents, у нас можно скачать бесплатно, без смс и регистрации и прочих ограничений лучшие, отборные сборки программ, игр. Скачать торрентом не составит труда даже не опытному пользователю. Раздачи ежедневно обновляются, только лучшие и качественные раздачи, подробные описания и скриншоты. Огромная коллекция программ для работы со звуком, графикой, дизайном, а так же множество плагинов и инструментов к ним с подробной инструкцией и рекомендациями. Прошивки для навигаторов, карты. Разнообразные игры, для Windows, Linux. В коллекцие есть и старые игры любых жанров, Rpg, Action, Shooter, strategy Множество дополнений, модификаций, сценариев для популярных игр в жанре экш, рпг, гонки, стратегии, логические игры. Множество аддонов и сценариев для Microsoft Flight Simulator Большая коллекция книг, учебников. Если нет возможности купить печатное издание - смело скачивайте цифровую версию книги или, быть может, журнала. Не любите читать - можно загрузить бесплатно аудикнигу. Для веб дизайнеров и программистов так же найдется множество специализированного софта, таких как: редакторы с подсветкой, среды программирования, компоненты, системы управления базами данных, разнообразные скрипты и шаблоны. Не так давно у нас появился материал для автолюбителей и владельцев мото - оригинальные и неоригинальные каталоги запчастей, книги и журналы по ремонту и обслуживанию, видеоуроки, статьи по чип тюнингу, прошивкам. Процедура получения контента элементарная, достаточно просто скачать торрент файл и добавить его в загрузку в вашем торрент клиенте. Если у вас нет специального торрент клиента, вы можете его скачать у нас.