Лунная гора / Chander Pahar (Камалешвар Мукхерджи / Kamaleswar Mukherjee) [2013, Индия, Приключения, экранизация, DVDRip] DVO (Евгений Малиновский и Юлия Семыкина) 

Цитировать
Лунная гора / Chander Pahar
Страна: Индия
Жанр: Приключения, экранизация
Год выпуска: 2013
Продолжительность: 02:30:39-Перевод: Любительский (двухголосый закадровый) - Евгений Малиновский и Юлия Семыкина
Субтитры: нет-Режиссер: Камалешвар Мукхерджи / Kamaleswar Mukherjee-В ролях: Дев, Жерар Рудольф, Мартин Джито Отто, Набил Кхан, Пол Дичфилд, Давид Джеймс, Рафиг Джибхай, Мэттью Моника, Кейт Гендагоо-Описание: Фильм - экранизация романа бенгальского писателя Бибхутибхушана Бандьопадхай, вышедшего в 1937 году, который описывает авантюрные похождения бедного бенгальского образованного молодого человека, Шанкара, не захотевшего прозябать у себя дома в деревне и уехавшего искать приключений в британскую колонию в Африку. Фильм наполнен кадрами великолепных ландшафтов, водопадов и пещер, отвесных каньонов и велдов, в нем много практически документальных съемок фауны.
Сэмпл: http://multi-up.com/1162325
Качество видео: DVDRip
Формат видео: AVI
Видео: 720x304 (2.35:1), 23.976 fps, XviD, 1737 Kbps, 0.33 Bits/Pixel
Аудио: 48 kHz, AC3 Dolby Digital, 3/2 (L,C,R,l,r) + LFE ch, 448 Kbps

Релиз

Релиз-группа: ZnaemTolk и BwTorrents
Перевод субтитров: nml68
Озвучка: Евгений Малиновский и Юлия Семыкина
Сведение звука: Юлия Семыкина

MediaInfo

General
Complete name : Downloads\Lunnaya.Gora 2013 XviD DVDRip.avi
Format : AVI
Format/Info : Audio Video Interleave
Format profile : OpenDML
File size : 2.31 GiB
Duration : 2h 30mn
Overall bit rate : 2 197 Kbps
Writing application : VirtualDubMod 1.5.10.2 (build 2540/release)
Writing library : VirtualDub build 32507/release
Video #0
ID : 0
Format : MPEG-4 Visual
Format profile : Advanced Simple@L5
Format settings, BVOP : 1
Format settings, QPel : No
Format settings, GMC : No warppoints
Format settings, Matrix : Default (H.263)
Muxing mode : Packed bitstream
Codec ID : XVID
Codec ID/Hint : XviD
Duration : 2h 30mn
Bit rate : 1 737 Kbps
Width : 720 pixels
Height : 304 pixels
Display aspect ratio : 2.35:1
Frame rate : 23.976 fps
Color space : YUV
Chroma subsampling : 4:2:0
Bit depth : 8 bits
Scan type : Progressive
Compression mode : Lossy
Bits/(Pixel*Frame) : 0.331
Stream size : 1.83 GiB (79%)
Writing library : XviD 1.2.1 (UTC 2008-12-04)
Audio #1
ID : 1
Format : AC-3
Format/Info : Audio Coding 3
Mode extension : CM (complete main)
Format settings, Endianness : Big
Codec ID : 2000
Duration : 2h 30mn
Bit rate mode : Constant
Bit rate : 448 Kbps
Channel(s) : 6 channels
Channel positions : Front: L C R, Side: L R, LFE
Sampling rate : 48.0 KHz
Bit depth : 16 bits
Compression mode : Lossy
Stream size : 483 MiB (20%)
Alignment : Aligned on interleaves
Interleave, duration : 42 ms (1.00 video frame)
Interleave, preload duration : 512 ms

Скриншот c названием фильма

Скриншоты

Вы не можете начинать темы
Вы не можете отвечать на сообщения
Вы не можете редактировать свои сообщения
Вы не можете удалять свои сообщения
Вы не можете голосовать в опросах
Вы не можете прикреплять файлы к сообщениям
Вы можете скачивать файлы
!ВНИМАНИЕ!

Сайт не предоставляет электронные версии произведений, а занимается лишь коллекционированием и каталогизацией ссылок, присылаемых и публикуемых на форуме нашими читателями. Если вы являетесь правообладателем какого-либо представленного материала и не желаете, чтобы ссылка на него находилась в нашем каталоге, свяжитесь с нами, и мы незамедлительно удалим ее. Файлы для обмена на трекере предоставлены пользователями сайта, и администрация не несет ответственности за их содержание. Просьба не заливать файлы, защищенные авторскими правами, а также файлы нелегального содержания!

Искали программы, игры, дополнения, музыка mp3, аниме, аудио книги, журналы? Добро пожаловать на свободный торрент трекер Torrents, у нас можно скачать бесплатно, без смс и регистрации и прочих ограничений лучшие, отборные сборки программ, игр. Скачать торрентом не составит труда даже не опытному пользователю. Раздачи ежедневно обновляются, только лучшие и качественные раздачи, подробные описания и скриншоты. Огромная коллекция программ для работы со звуком, графикой, дизайном, а так же множество плагинов и инструментов к ним с подробной инструкцией и рекомендациями. Прошивки для навигаторов, карты. Разнообразные игры, для Windows, Linux. В коллекцие есть и старые игры любых жанров, Rpg, Action, Shooter, strategy Множество дополнений, модификаций, сценариев для популярных игр в жанре экш, рпг, гонки, стратегии, логические игры. Множество аддонов и сценариев для Microsoft Flight Simulator Большая коллекция книг, учебников. Если нет возможности купить печатное издание - смело скачивайте цифровую версию книги или, быть может, журнала. Не любите читать - можно загрузить бесплатно аудикнигу. Для веб дизайнеров и программистов так же найдется множество специализированного софта, таких как: редакторы с подсветкой, среды программирования, компоненты, системы управления базами данных, разнообразные скрипты и шаблоны. Не так давно у нас появился материал для автолюбителей и владельцев мото - оригинальные и неоригинальные каталоги запчастей, книги и журналы по ремонту и обслуживанию, видеоуроки, статьи по чип тюнингу, прошивкам. Процедура получения контента элементарная, достаточно просто скачать торрент файл и добавить его в загрузку в вашем торрент клиенте. Если у вас нет специального торрент клиента, вы можете его скачать у нас.