Жизнь без родственной души / Sathi Hara (Сукумар Дасгупта / Sukumar Dasgupta) [1961, Индия, Драма, мелодрама, WEBRip 1080] VO + Sub Rus (песни) 

Цитировать
Жизнь без родственной души / Sathi Hara- Страна: Индия
Жанр: Драма, мелодрама
Год выпуска: 1961
Продолжительность: 01:50:39-Перевод: Одноголосый закадровый
Субтитры: Русские (на песни)-Режиссер: Сукумар Дасгупта / Sukumar Dasgupta-В ролях: Уттам Кумар, Мала Синха, Судхир Басу, Мира Чакраборти, Аджит Чатерджи, Нрипати Чатерджи, Аша Деви, Раджалакшми Деви Гита Дей, Барун Датта, Каджари Гуха-Описание: Кундан и Рупа - бродячие артисты, они дают представления по городам и деревням. Кундан вполне доволен такой жизнью, однако его спутница мечтает о богатстве. И вот однажды Кундану выпадет шанс стать знаменитым и богатым. Но принесет ли это им обоим счастье?..
Сэмпл: http://multi-up.com/1143396
Качество видео: WEBRip 1080
Формат видео: MKV
Видео: MPEG-4 AVC, 1920x1080 (16:9), 29.970 fps, 1966 Kbps, 0.032 bits/pixel
Аудио: 48 kHz, AC3 Dolby Digital, 2 ch, 192 Kbps-Озвучка и подготовка субтитров к переводу: Бахурани
Перевод субтитров, работа с аудио: larisa_k
Релиз-группа: -

MediaInfo

General
Complete name : Downloads\Zhizn.bez.rodstvennoj.dushi.1961.WEBRip.x264.BWTorrents.mkv
Format : Matroska
Format version : Version 2
File size : 1.70 GiB
Duration : 1h 50mn
Overall bit rate : 2 201 Kbps
Writing application : mkvmerge v5.4.0 ('Piper') built on Mar 10 2012 13:34:39
Writing library : libebml v1.2.3 + libmatroska v1.3.0
Video #1
ID : 1
Format : AVC
Format/Info : Advanced Video Codec
Format profile : High@L4.0
Format settings, CABAC : Yes
Format settings, ReFrames : 3 frames
Muxing mode : Header stripping
Codec ID : V_MPEG4/ISO/AVC
Duration : 1h 50mn
Bit rate : 1 966 Kbps
Width : 1 920 pixels
Height : 1 080 pixels
Display aspect ratio : 16:9
Frame rate mode : Constant
Frame rate : 29.970 fps
Color space : YUV
Chroma subsampling : 4:2:0
Bit depth : 8 bits
Scan type : Progressive
Bits/(Pixel*Frame) : 0.032
Stream size : 1.52 GiB (89%)
Title : Жизнь без родственной души / Sathi Hara (1961)
Language : Bengali
Default : Yes
Forced : Yes
Audio #2
ID : 2
Format : AC-3
Format/Info : Audio Coding 3
Mode extension : CM (complete main)
Format settings, Endianness : Big
Muxing mode : Header stripping
Codec ID : A_AC3
Duration : 1h 50mn
Bit rate mode : Constant
Bit rate : 192 Kbps
Channel(s) : 2 channels
Channel positions : Front: L R
Sampling rate : 48.0 KHz
Bit depth : 16 bits
Compression mode : Lossy
Stream size : 152 MiB (9%)
Title : Жизнь без родственной души / Sathi Hara (1961)
Language : Russian
Default : Yes
Forced : Yes
Text #3
ID : 3
Format : ASS
Codec ID : S_TEXT/ASS
Codec ID/Info : Advanced Sub Station Alpha
Compression mode : Lossless
Title : Жизнь без родственной души / Sathi Hara (1961)
Language : Russian
Default : Yes
Forced : Yes

Скриншот c названием фильма

Скриншоты

Вы не можете начинать темы
Вы не можете отвечать на сообщения
Вы не можете редактировать свои сообщения
Вы не можете удалять свои сообщения
Вы не можете голосовать в опросах
Вы не можете прикреплять файлы к сообщениям
Вы можете скачивать файлы
!ВНИМАНИЕ!

Сайт не предоставляет электронные версии произведений, а занимается лишь коллекционированием и каталогизацией ссылок, присылаемых и публикуемых на форуме нашими читателями. Если вы являетесь правообладателем какого-либо представленного материала и не желаете, чтобы ссылка на него находилась в нашем каталоге, свяжитесь с нами, и мы незамедлительно удалим ее. Файлы для обмена на трекере предоставлены пользователями сайта, и администрация не несет ответственности за их содержание. Просьба не заливать файлы, защищенные авторскими правами, а также файлы нелегального содержания!

Искали программы, игры, дополнения, музыка mp3, аниме, аудио книги, журналы? Добро пожаловать на свободный торрент трекер Torrents, у нас можно скачать бесплатно, без смс и регистрации и прочих ограничений лучшие, отборные сборки программ, игр. Скачать торрентом не составит труда даже не опытному пользователю. Раздачи ежедневно обновляются, только лучшие и качественные раздачи, подробные описания и скриншоты. Огромная коллекция программ для работы со звуком, графикой, дизайном, а так же множество плагинов и инструментов к ним с подробной инструкцией и рекомендациями. Прошивки для навигаторов, карты. Разнообразные игры, для Windows, Linux. В коллекцие есть и старые игры любых жанров, Rpg, Action, Shooter, strategy Множество дополнений, модификаций, сценариев для популярных игр в жанре экш, рпг, гонки, стратегии, логические игры. Множество аддонов и сценариев для Microsoft Flight Simulator Большая коллекция книг, учебников. Если нет возможности купить печатное издание - смело скачивайте цифровую версию книги или, быть может, журнала. Не любите читать - можно загрузить бесплатно аудикнигу. Для веб дизайнеров и программистов так же найдется множество специализированного софта, таких как: редакторы с подсветкой, среды программирования, компоненты, системы управления базами данных, разнообразные скрипты и шаблоны. Не так давно у нас появился материал для автолюбителей и владельцев мото - оригинальные и неоригинальные каталоги запчастей, книги и журналы по ремонту и обслуживанию, видеоуроки, статьи по чип тюнингу, прошивкам. Процедура получения контента элементарная, достаточно просто скачать торрент файл и добавить его в загрузку в вашем торрент клиенте. Если у вас нет специального торрент клиента, вы можете его скачать у нас.