Мэм Сахиб / Mem Saheb (Пинаки Бхушан Мухержи / Pinaki Bhushan Mukherji) [1972, Индия, Драма, мелодрама, DVDRip] VO (Бахурани) + Sub Rus (на песни) 

Цитировать
Мэм Сахиб / Mem Saheb
Страна: Индия
Жанр: Драма, мелодрама
Год выпуска: 1972
Продолжительность: 02:02:15
Перевод: Одноголосый закадровый Бахурани
Субтитры: русские (только на тексты песен)
Режиссер: Пинаки Бхушан Мухержи / Pinaki Bhushan Mukherji
В ролях: Уттам Кумар, Апарна Сен, Соумитра Мукерджи, Бикаш Рой, Джахар Рой, Пинаки Мукерджи, Лолита Мукерджи, Гита Дей, Дилип Мукерджи, Гоур Шри, Субрата Мукерджи, Басанти Мукерджи
Описание: Каджал, получившая как каламбур прозвище Мэм сахиб из-за своей смуглой кожи, встречает молодого журналиста Амита, карьера которого стоит на месте. Молодые люди влюбляются и Каджал становится для неудачливого Амита вдохновением в его стремлении подняться по карьерной лестнице. Он достигает успеха благодаря поддержке своей Мэм сахиб. Влюбленные уже строят планы будущей семейной жизни, однако будущее непредсказуемо…
Доп. информация: Релиз
Перевод субтитров, работа с аудио: larisa_k (Спасибо!)
Озвучка, техобработка субтитров: Бахурани (Спасибо!)
За постер Спасибо! Barents!!
Сэмпл: http://multi-up.com/1114824
Качество видео: DVDRip
Формат видео: AVI
Видео: DivX Codec 4.x, 640x480 (1.33:1), 23.976 fps, 1873 kbps avg
Аудио: AC3 Dolby Digital, 48 kHz, 2/0 (L,R) ch, 192.00 kbps

MediaInfo

General
Complete name : F:\Mjem.Sahib.1972.DVDRip.DivX.BwTorrents\Mjem.Sahib.1972.DVDRip.DivX.BwTorrents.avi
Format : AVI
Format/Info : Audio Video Interleave
File size : 1.77 GiB
Duration : 2h 2mn
Overall bit rate : 2 075 Kbps
Writing application : VirtualDubModRus 1.5.10.2 (build 2542/release)
Writing library : VirtualDubMod build 2542/release
Video
ID : 0
Format : MPEG-4 Visual
Format profile : Simple@L1
Format settings, BVOP : No
Format settings, QPel : No
Format settings, GMC : No warppoints
Format settings, Matrix : Default (H.263)
Codec ID : DIVX
Codec ID/Info : Project Mayo
Codec ID/Hint : DivX 4
Duration : 2h 2mn
Bit rate : 1 874 Kbps
Width : 640 pixels
Height : 480 pixels
Display aspect ratio : 4/3
Frame rate : 23.976 fps
Resolution : 24 bits
Colorimetry : 4:2:0
Scan type : Progressive
Bits/(Pixel*Frame) : 0.254
Stream size : 1.60 GiB (90%)
Writing library : Lavc52.22.3
Audio
ID : 1
Format : AC-3
Format/Info : Audio Coding 3
Codec ID : 2000
Duration : 2h 2mn
Bit rate mode : Constant
Bit rate : 192 Kbps
Channel(s) : 2 channels
Channel positions : L R
Sampling rate : 48.0 KHz
Stream size : 168 MiB (9%)
Alignment : Split accross interleaves
Interleave, duration : 42 ms (1.00 video frame)
Interleave, preload duration : 500 ms

Скриншоты

Вы не можете начинать темы
Вы не можете отвечать на сообщения
Вы не можете редактировать свои сообщения
Вы не можете удалять свои сообщения
Вы не можете голосовать в опросах
Вы не можете прикреплять файлы к сообщениям
Вы можете скачивать файлы
!ВНИМАНИЕ!

Сайт не предоставляет электронные версии произведений, а занимается лишь коллекционированием и каталогизацией ссылок, присылаемых и публикуемых на форуме нашими читателями. Если вы являетесь правообладателем какого-либо представленного материала и не желаете, чтобы ссылка на него находилась в нашем каталоге, свяжитесь с нами, и мы незамедлительно удалим ее. Файлы для обмена на трекере предоставлены пользователями сайта, и администрация не несет ответственности за их содержание. Просьба не заливать файлы, защищенные авторскими правами, а также файлы нелегального содержания!

Искали программы, игры, дополнения, музыка mp3, аниме, аудио книги, журналы? Добро пожаловать на свободный торрент трекер Torrents, у нас можно скачать бесплатно, без смс и регистрации и прочих ограничений лучшие, отборные сборки программ, игр. Скачать торрентом не составит труда даже не опытному пользователю. Раздачи ежедневно обновляются, только лучшие и качественные раздачи, подробные описания и скриншоты. Огромная коллекция программ для работы со звуком, графикой, дизайном, а так же множество плагинов и инструментов к ним с подробной инструкцией и рекомендациями. Прошивки для навигаторов, карты. Разнообразные игры, для Windows, Linux. В коллекцие есть и старые игры любых жанров, Rpg, Action, Shooter, strategy Множество дополнений, модификаций, сценариев для популярных игр в жанре экш, рпг, гонки, стратегии, логические игры. Множество аддонов и сценариев для Microsoft Flight Simulator Большая коллекция книг, учебников. Если нет возможности купить печатное издание - смело скачивайте цифровую версию книги или, быть может, журнала. Не любите читать - можно загрузить бесплатно аудикнигу. Для веб дизайнеров и программистов так же найдется множество специализированного софта, таких как: редакторы с подсветкой, среды программирования, компоненты, системы управления базами данных, разнообразные скрипты и шаблоны. Не так давно у нас появился материал для автолюбителей и владельцев мото - оригинальные и неоригинальные каталоги запчастей, книги и журналы по ремонту и обслуживанию, видеоуроки, статьи по чип тюнингу, прошивкам. Процедура получения контента элементарная, достаточно просто скачать торрент файл и добавить его в загрузку в вашем торрент клиенте. Если у вас нет специального торрент клиента, вы можете его скачать у нас.