Разия Султан / Razia Sultana (Девендра Гоел) [1961, Индия, Мелодрама, DVDRip] MVO + Original + Sub Rus 

Цитировать
Разия Султан / Razia Sultana--
Страна: Индия
Жанр: Мелодрама
Год выпуска: 1961
Продолжительность: 02:18:26
Перевод: Любительский (многоголосый закадровый)
Перевод субтитров и материалы: larisa_k
Озвучка: Aleksgreek, Nastia, Бахурани, Юлия Семыкина
Субтитры: Русские (на песни)
Оригинальная аудиодорожка: хинди--Режиссер: Девендра Гоел--В ролях: Нирупа Рой, Камран, П.Джайрадж, Нисар Ахмад Ансари, Агха, Лила Мишра, Лалита Павар, М.Кумар, Мадхумати, Дживан Кала--Описание: то вольная экранизация жизни знаменитой делийской правительницы Разии Султан. Ее жизнь была овеяна легендами еще при жизни, а ее смерть так и осталась до конца не разгаданной тайной. До сих пор ее помнят как в Индии, так и в Пакистане и в ее честь родители все еще продолжают называть своих дочерей, хотя со времени ее смерти прошли века...--Доп. информация: РАЗИЙЯ-ХАТУН-СУЛТАН
ДЕЛИЙСКОГО МУСУЛЬМАНСКОГО ТЮРКСКОГО ГОСУДАРСТВА
СУЛТАН РАЗИЙЯ
Для всех мусульманских стран, расположенных на территории трех континентов — от Испании до Индонезии — первой женщиной, владевшей престолом, была султан Делийского тюркского мусульманского государства Разийя-хатун.
Один из самых значительных городов Северной Индии, Дели — самый древний из семи основанных раджей Притхви. Этот город в 584 г.х. (1189 г) был захвачен эмиром Кутб ад-Дином Айбеком, рабом султана Шихаб ад-Дина (Муизз ад-Дина), Мухаммеда Гури. После смерти последнего в 602 г.х. (1205 г.) Айбек официально объявил о независимости Дели от Гуридов и основал новую династию, назвав ее по кунье (имени отца) своего патрона Муиззийя. После этого такие значительные индийские области, как Рантанпур, Гвалиор, Бенарес, Аджмир, Патна, Каланджар и Бенгалия, вынуждены были признать тюркско-мусульманское владычество, что способствовало еще большему распространению ислама в Индии.
О судьбе Разии Султан также были сняты фильм Дочь султана ("Razia Sultan", 1983) с Хемой Малини и Дхармендрой и сериал "Razia Sultan", вышедший на экраны в 2015, где в ролях Разии и Альтунии выступили Панкхури Авастхья и Рохит Пурохит.--Автор релиза:
Релиз-группа:
Cведение звука: pca1962--Сэмпл: http://multi-up.com/1068467
Качество видео: DVDRip
Формат видео: AVI
Видео: XviD, 640x480, 29.97 fps, 958 kbps
Аудио: AC3, 48 kHz, 2.0 (stereo), 192 kbps (русский)
Аудио 2: AC3, 48 kHz, 5.1 (6 ch), 384 kbps (хинди)
Формат субтитров: softsub (SRT)--

MediaInfo

General
Complete name : Raziya.Sultan.1961.DVDRip.XviD.pca1962.avi
Format : AVI
Format/Info : Audio Video Interleave
File size : 1.50 GiB
Duration : 2h 18mn
Overall bit rate : 1 552 Kbps
Movie name : Raziya.Sultan.1961
Director : mixing audio rus - pca1962
Genre : Melodrama
Writing application : VirtualDubMod 1.5.10.2 (build 2542/release)
Original source form/Name : Movie
Comment : translate sub - larisa_k
Video
ID : 0
Format : MPEG-4 Visual
Format profile : Advanced Simple@L5
Format settings, BVOP : 1
Format settings, QPel : No
Format settings, GMC : No warppoints
Format settings, Matrix : Custom
Codec ID : XVID
Codec ID/Hint : XviD
Duration : 2h 18mn
Bit rate : 958 Kbps
Width : 640 pixels
Height : 480 pixels
Display aspect ratio : 4:3
Frame rate : 29.970 fps
Color space : YUV
Chroma subsampling : 4:2:0
Bit depth : 8 bits
Scan type : Progressive
Compression mode : Lossy
Bits/(Pixel*Frame) : 0.104
Stream size : 949 MiB (62%)
Writing library : XviD 1.2.1 (UTC 2008-12-04)
Audio #1
ID : 1
Format : AC-3
Format/Info : Audio Coding 3
Mode extension : CM (complete main)
Format settings, Endianness : Big
Codec ID : 2000
Duration : 2h 18mn
Bit rate mode : Constant
Bit rate : 192 Kbps
Channel(s) : 2 channels
Channel positions : Front: L R
Sampling rate : 48.0 KHz
Compression mode : Lossy
Stream size : 190 MiB (12%)
Alignment : Split accross interleaves
Interleave, duration : 33 ms (1.00 video frame)
Interleave, preload duratio : 500 ms
Audio #2
ID : 2
Format : AC-3
Format/Info : Audio Coding 3
Mode extension : CM (complete main)
Format settings, Endianness : Big
Codec ID : 2000
Duration : 2h 18mn
Bit rate mode : Constant
Bit rate : 384 Kbps
Channel(s) : 6 channels
Channel positions : Front: L C R, Side: L R, LFE
Sampling rate : 48.0 KHz
Compression mode : Lossy
Stream size : 380 MiB (25%)
Alignment : Split accross interleaves
Interleave, duration : 33 ms (1.00 video frame)
Interleave, preload duratio : 500 ms
--

Скриншот c названием фильма

Вы не можете начинать темы
Вы не можете отвечать на сообщения
Вы не можете редактировать свои сообщения
Вы не можете удалять свои сообщения
Вы не можете голосовать в опросах
Вы не можете прикреплять файлы к сообщениям
Вы можете скачивать файлы
!ВНИМАНИЕ!

Сайт не предоставляет электронные версии произведений, а занимается лишь коллекционированием и каталогизацией ссылок, присылаемых и публикуемых на форуме нашими читателями. Если вы являетесь правообладателем какого-либо представленного материала и не желаете, чтобы ссылка на него находилась в нашем каталоге, свяжитесь с нами, и мы незамедлительно удалим ее. Файлы для обмена на трекере предоставлены пользователями сайта, и администрация не несет ответственности за их содержание. Просьба не заливать файлы, защищенные авторскими правами, а также файлы нелегального содержания!

Искали программы, игры, дополнения, музыка mp3, аниме, аудио книги, журналы? Добро пожаловать на свободный торрент трекер Torrents, у нас можно скачать бесплатно, без смс и регистрации и прочих ограничений лучшие, отборные сборки программ, игр. Скачать торрентом не составит труда даже не опытному пользователю. Раздачи ежедневно обновляются, только лучшие и качественные раздачи, подробные описания и скриншоты. Огромная коллекция программ для работы со звуком, графикой, дизайном, а так же множество плагинов и инструментов к ним с подробной инструкцией и рекомендациями. Прошивки для навигаторов, карты. Разнообразные игры, для Windows, Linux. В коллекцие есть и старые игры любых жанров, Rpg, Action, Shooter, strategy Множество дополнений, модификаций, сценариев для популярных игр в жанре экш, рпг, гонки, стратегии, логические игры. Множество аддонов и сценариев для Microsoft Flight Simulator Большая коллекция книг, учебников. Если нет возможности купить печатное издание - смело скачивайте цифровую версию книги или, быть может, журнала. Не любите читать - можно загрузить бесплатно аудикнигу. Для веб дизайнеров и программистов так же найдется множество специализированного софта, таких как: редакторы с подсветкой, среды программирования, компоненты, системы управления базами данных, разнообразные скрипты и шаблоны. Не так давно у нас появился материал для автолюбителей и владельцев мото - оригинальные и неоригинальные каталоги запчастей, книги и журналы по ремонту и обслуживанию, видеоуроки, статьи по чип тюнингу, прошивкам. Процедура получения контента элементарная, достаточно просто скачать торрент файл и добавить его в загрузку в вашем торрент клиенте. Если у вас нет специального торрент клиента, вы можете его скачать у нас.