Зверинец / Chiriyakhana (Сатьяджит Рай / Satyajit Ray) [1967, Индия, Детектив, DVDRip] VO (Бахурани) + Sub Rus (на песни) 

Цитировать
Зверинец / Chiriyakhana
Страна: Индия
Жанр: Детектив
Год выпуска: 1967
Продолжительность: 02:02:00
Перевод: Одноголосый закадровый Бахурани
Субтитры: русские (внешние, на песни)
Режиссер: Сатьяджит Рай / Satyajit Ray
В ролях: Уттам Кумар, Калипада Чакраборти, Нрипати Чаттерджи, Шехар Чаттерджи, Субхенду Чаттерджи, Субрата Чаттерджи, Биной Дута, Джахар Гангули, Шайлен Гангули
Описание: Судья в отставке Нишанатх Сет приглашает знаменитого сыщика Бумкеша Барши и его помощника Аджита в свой приют. Приют населен своеобразными людьми, большинство из которых являются преступниками и изгоями и в народе называется «зверинцем». Сет просит Бумкеша собрать данные об одной актрисе бенгальского фильма. Прибыв в приют, сыщик узнает, что Нишанатх был убит. Сможет ли Бумкеш найти преступника из числа странных жителей «зверинца»?..
Доп. информация: Релиз
Озвучка: Бахурани (Спасибо!)
Материалы: larisa_k (Спасибо!)
Перевод субтитров, сведение аудио: керелис (Спасибо!)
Сэмпл: http://multi-up.com/1101539
Качество видео: DVDRip
Формат видео: AVI
Видео: XviD, 704x544 (1.294:1), 23.976 fps, 1476 kbps avg
Аудио: AC3 Dolby Digital, 48 kHz, 2/0 (L,R) ch, 192.00 kbps

MediaInfo

General
Complete name : F:\Zverinec.1967.DVDRip.BWTorrents\Zverinec.1967.DVDRip.BWTorrents.avi
Format : Matroska
File size : 1.45 GiB
Duration : 2h 2mn
Overall bit rate : 1 702 Kbps
Movie name : Chiriyakhana (ЗВЕРИНЕЦ) [1967]
Encoded date : UTC 2016-05-15 08:19:00
Writing application : mkvmerge v6.0.0 ('Coming Up For Air') built on Jan 20 2013 09:52:00
Writing library : libebml v1.3.0 + libmatroska v1.4.0
Video
ID : 1
Format : MPEG-4 Visual
Format profile : AdvancedSimple@L5
Format settings, BVOP : Yes
Format settings, QPel : No
Format settings, GMC : No warppoints
Format settings, Matrix : Default (H.263)
Codec ID : XVID
Codec ID/Hint : XviD
Duration : 2h 1mn
Bit rate : 1 476 Kbps
Width : 704 pixels
Height : 544 pixels
Display aspect ratio : 1.294
Frame rate : 23.976 fps
Resolution : 24 bits
Colorimetry : 4:2:0
Scan type : Progressive
Bits/(Pixel*Frame) : 0.161
Stream size : 1.26 GiB (87%)
Title : Chiriyakhana (The Zoo)
Writing library : XviD 1.2.1 (UTC 2008-12-04)
Audio
ID : 2
Format : AC-3
Format/Info : Audio Coding 3
Codec ID : A_AC3
Duration : 2h 2mn
Bit rate mode : Constant
Bit rate : 192 Kbps
Channel(s) : 2 channels
Channel positions : L R
Sampling rate : 48.0 KHz
Stream size : 168 MiB (11%)
Title : АС3 2сh 192 Бахурани
Language : Russian

Скриншоты

Вы не можете начинать темы
Вы не можете отвечать на сообщения
Вы не можете редактировать свои сообщения
Вы не можете удалять свои сообщения
Вы не можете голосовать в опросах
Вы не можете прикреплять файлы к сообщениям
Вы можете скачивать файлы
!ВНИМАНИЕ!

Сайт не предоставляет электронные версии произведений, а занимается лишь коллекционированием и каталогизацией ссылок, присылаемых и публикуемых на форуме нашими читателями. Если вы являетесь правообладателем какого-либо представленного материала и не желаете, чтобы ссылка на него находилась в нашем каталоге, свяжитесь с нами, и мы незамедлительно удалим ее. Файлы для обмена на трекере предоставлены пользователями сайта, и администрация не несет ответственности за их содержание. Просьба не заливать файлы, защищенные авторскими правами, а также файлы нелегального содержания!

Искали программы, игры, дополнения, музыка mp3, аниме, аудио книги, журналы? Добро пожаловать на свободный торрент трекер Torrents, у нас можно скачать бесплатно, без смс и регистрации и прочих ограничений лучшие, отборные сборки программ, игр. Скачать торрентом не составит труда даже не опытному пользователю. Раздачи ежедневно обновляются, только лучшие и качественные раздачи, подробные описания и скриншоты. Огромная коллекция программ для работы со звуком, графикой, дизайном, а так же множество плагинов и инструментов к ним с подробной инструкцией и рекомендациями. Прошивки для навигаторов, карты. Разнообразные игры, для Windows, Linux. В коллекцие есть и старые игры любых жанров, Rpg, Action, Shooter, strategy Множество дополнений, модификаций, сценариев для популярных игр в жанре экш, рпг, гонки, стратегии, логические игры. Множество аддонов и сценариев для Microsoft Flight Simulator Большая коллекция книг, учебников. Если нет возможности купить печатное издание - смело скачивайте цифровую версию книги или, быть может, журнала. Не любите читать - можно загрузить бесплатно аудикнигу. Для веб дизайнеров и программистов так же найдется множество специализированного софта, таких как: редакторы с подсветкой, среды программирования, компоненты, системы управления базами данных, разнообразные скрипты и шаблоны. Не так давно у нас появился материал для автолюбителей и владельцев мото - оригинальные и неоригинальные каталоги запчастей, книги и журналы по ремонту и обслуживанию, видеоуроки, статьи по чип тюнингу, прошивкам. Процедура получения контента элементарная, достаточно просто скачать торрент файл и добавить его в загрузку в вашем торрент клиенте. Если у вас нет специального торрент клиента, вы можете его скачать у нас.