Препятствие в пути / Pathey Holo Deri (Аградут / Agradoot) [1957, Индия, Мелодрама, DVDRip] VO (Бахурани) + Sub Rus (на песни) 

Цитировать
Препятствие в пути / Pathey Holo Deri
Страна: Индия
Жанр: Мелодрама
Год выпуска: 1957
Продолжительность: 02:26:41
Перевод: Одноголосый закадровый Бахурани
Субтитры: русские (только на тексты песен)
Режиссер: Аградут / Agradoot
В ролях: Уттам Кумар, Сучитра Сен, Камала Мукхерджи, Читра Мандал, Ануп Кумар, Шишир Батабиал, Анил Бхаттачария, Михир Бхаттачария, Бхарати Деви, Чхаби Бисвас, Джахар Гангули
Описание: Эта история любви бедного доктора Джаянта Мукерджи и богатой наследницы Моллики Банерджи. Дедушка Моллики решил выдать замуж свою внучку за сына миллионера. Чтобы помочь любимому получить докторскую степень в Англии, девушка тайком продает украшения своей матери. Узнав об этом, дед приходит в ярость, он убеждает внучку в том, что Джаянта использовал ее ради денег. Одновременно он пишет письмо Джаянте, что Моллика выходит замуж. Вскоре Молли узнает, что доктор женится на Аарти, с которой познакомился в Европе…
Доп. информация:
Озвучка: Бахурани (Спасибо!)
Материалы: larisa_k (Спасибо!)
Перевод, работа с аудио: керелис (Спасибо!)
Сэмпл: http://multi-up.com/1077452
Качество видео: DVDRip
Формат видео: AVI
Видео: DivX Codec 4.x, 640x480 (1.33:1), 23.976 fps, 1388 kbps avg
Аудио: MPEG Layer 3, 44.100 kHz, 2/0 (L,R) ch, 192.00 kbps

MediaInfo

General
Complete name : F:\Prepjatstvie.v.puti.1957.DVDRip.DivX.BWTorrents\Prepjatstvie.v.puti.1957.DVDRip.DivX.BWTorrents.avi
Format : AVI
Format/Info : Audio Video Interleave
File size : 1.63 GiB
Duration : 2h 26mn
Overall bit rate : 1 590 Kbps
Writing application : Lavf52.32.0
Writing library : VirtualDub build 30091/release
Video
ID : 0
Format : MPEG-4 Visual
Format profile : Simple@L1
Format settings, BVOP : No
Format settings, QPel : No
Format settings, GMC : No warppoints
Format settings, Matrix : Default (H.263)
Codec ID : DIVX
Codec ID/Info : Project Mayo
Codec ID/Hint : DivX 4
Duration : 2h 26mn
Bit rate : 1 388 Kbps
Width : 640 pixels
Height : 480 pixels
Display aspect ratio : 4/3
Frame rate : 23.976 fps
Resolution : 24 bits
Colorimetry : 4:2:0
Scan type : Progressive
Bits/(Pixel*Frame) : 0.188
Stream size : 1.42 GiB (87%)
Writing library : Lavc52.22.3
Audio
ID : 1
Format : MPEG Audio
Format version : Version 1
Format profile : Layer 3
Codec ID : 55
Codec ID/Hint : MP3
Duration : 2h 26mn
Bit rate mode : Constant
Bit rate : 192 Kbps
Channel(s) : 2 channels
Sampling rate : 44.1 KHz
Resolution : 16 bits
Stream size : 201 MiB (12%)
Alignment : Split accross interleaves
Interleave, duration : 42 ms (1.00 video frame)
Interleave, preload duration : 500 ms

Скриншоты

Вы не можете начинать темы
Вы не можете отвечать на сообщения
Вы не можете редактировать свои сообщения
Вы не можете удалять свои сообщения
Вы не можете голосовать в опросах
Вы не можете прикреплять файлы к сообщениям
Вы можете скачивать файлы
!ВНИМАНИЕ!

Сайт не предоставляет электронные версии произведений, а занимается лишь коллекционированием и каталогизацией ссылок, присылаемых и публикуемых на форуме нашими читателями. Если вы являетесь правообладателем какого-либо представленного материала и не желаете, чтобы ссылка на него находилась в нашем каталоге, свяжитесь с нами, и мы незамедлительно удалим ее. Файлы для обмена на трекере предоставлены пользователями сайта, и администрация не несет ответственности за их содержание. Просьба не заливать файлы, защищенные авторскими правами, а также файлы нелегального содержания!

Искали программы, игры, дополнения, музыка mp3, аниме, аудио книги, журналы? Добро пожаловать на свободный торрент трекер Torrents, у нас можно скачать бесплатно, без смс и регистрации и прочих ограничений лучшие, отборные сборки программ, игр. Скачать торрентом не составит труда даже не опытному пользователю. Раздачи ежедневно обновляются, только лучшие и качественные раздачи, подробные описания и скриншоты. Огромная коллекция программ для работы со звуком, графикой, дизайном, а так же множество плагинов и инструментов к ним с подробной инструкцией и рекомендациями. Прошивки для навигаторов, карты. Разнообразные игры, для Windows, Linux. В коллекцие есть и старые игры любых жанров, Rpg, Action, Shooter, strategy Множество дополнений, модификаций, сценариев для популярных игр в жанре экш, рпг, гонки, стратегии, логические игры. Множество аддонов и сценариев для Microsoft Flight Simulator Большая коллекция книг, учебников. Если нет возможности купить печатное издание - смело скачивайте цифровую версию книги или, быть может, журнала. Не любите читать - можно загрузить бесплатно аудикнигу. Для веб дизайнеров и программистов так же найдется множество специализированного софта, таких как: редакторы с подсветкой, среды программирования, компоненты, системы управления базами данных, разнообразные скрипты и шаблоны. Не так давно у нас появился материал для автолюбителей и владельцев мото - оригинальные и неоригинальные каталоги запчастей, книги и журналы по ремонту и обслуживанию, видеоуроки, статьи по чип тюнингу, прошивкам. Процедура получения контента элементарная, достаточно просто скачать торрент файл и добавить его в загрузку в вашем торрент клиенте. Если у вас нет специального торрент клиента, вы можете его скачать у нас.