Отдай своё сердце / Dil Deke Dekho (Насир Хуссейн / Nasir Hussain) [1959, Индия, Комедия, DVDRip] VO (Юлия Семыкина) + Sub Rus (на песни) 

Цитировать
Отдай своё сердце / Dil Deke Dekho- Страна: Индия
Жанр: Комедия
Год выпуска: 1959
Продолжительность: 02:51:09-Перевод: Одноголосый закадровый - Юлия Семыкина
Субтитры: Pусские на песни-Режиссер: Насир Хуссейн / Nasir Hussain-В ролях: Шамми Капур, Аша Парекх, Раджендра Натх, Сулочана Латкар, Мумтаз Али, Радж Мехра, Рандхир-Описание: Руп встретил Ниту и тут же влюбился в нее. Но вот беда - она и знать его не хочет, считая его легкомысленным ловеласом. Да и других забот у неё полно, надо же как-то избавиться от жениха, навязанного отцом. Руп готов ей в этом помочь. Но, когда его заветная мечта быть вместе с Нитой вот-вот исполнится, его ожидает большой сюрприз.
Доп. информация: Этот фильм - дебют Аши Парекх.
Сэмпл: http://multi-up.com/1165226
Качество видео: DVDRip
Формат видео: AVI
Видео: 720x480, 29.970 fps, XviD build 67, 1600 Kbps
Аудио: 48 kHz, AC3 Dolby Digital, 3/2 (L,C,R,l,r) + LFE ch, 384 Kbps
Формат субтитров: softsub (SRT)

Релиз

Релиз-группа:
Предоставленные материалы: larisa_k
Перевод: kasmevaade
Озвучка, сведение звука: Юлия Семыкина

MediaInfo

General
Complete name : Downloads\Otday.svoyo.serdce.1959.DVDRip.XviD
Format : AVI
Format/Info : Audio Video Interleave
Format profile : OpenDML
File size : 2.46 GiB
Duration : 2h 51mn
Overall bit rate : 2 062 Kbps
Writing application : Lavf57.26.100
Writing library : VirtualDub build 32507/release
Video #0
ID : 0
Format : MPEG-4 Visual
Format profile : Simple@L3
Format settings, BVOP : No
Format settings, QPel : No
Format settings, GMC : No warppoints
Format settings, Matrix : Default (H.263)
Codec ID : XVID
Codec ID/Hint : XviD
Duration : 2h 51mn
Bit rate : 1 600 Kbps
Width : 720 pixels
Height : 480 pixels
Display aspect ratio : 4:3
Frame rate : 29.970 fps
Standard : NTSC
Color space : YUV
Chroma subsampling : 4:2:0
Bit depth : 8 bits
Scan type : Progressive
Compression mode : Lossy
Bits/(Pixel*Frame) : 0.154
Stream size : 1.91 GiB (78%)
Writing library : XviD 67
Audio #1
ID : 1
Format : AC-3
Format/Info : Audio Coding 3
Mode extension : CM (complete main)
Format settings, Endianness : Big
Codec ID : 2000
Duration : 2h 51mn
Bit rate mode : Constant
Bit rate : 448 Kbps
Channel(s) : 6 channels
Channel positions : Front: L C R, Side: L R, LFE
Sampling rate : 48.0 KHz
Bit depth : 16 bits
Compression mode : Lossy
Stream size : 548 MiB (22%)
Alignment : Aligned on interleaves
Interleave, duration : 33 ms (1.00 video frame)
Interleave, preload duration : 512 ms

Скриншот c названием фильма

Скриншоты

Вы не можете начинать темы
Вы не можете отвечать на сообщения
Вы не можете редактировать свои сообщения
Вы не можете удалять свои сообщения
Вы не можете голосовать в опросах
Вы не можете прикреплять файлы к сообщениям
Вы можете скачивать файлы
!ВНИМАНИЕ!

Сайт не предоставляет электронные версии произведений, а занимается лишь коллекционированием и каталогизацией ссылок, присылаемых и публикуемых на форуме нашими читателями. Если вы являетесь правообладателем какого-либо представленного материала и не желаете, чтобы ссылка на него находилась в нашем каталоге, свяжитесь с нами, и мы незамедлительно удалим ее. Файлы для обмена на трекере предоставлены пользователями сайта, и администрация не несет ответственности за их содержание. Просьба не заливать файлы, защищенные авторскими правами, а также файлы нелегального содержания!

Искали программы, игры, дополнения, музыка mp3, аниме, аудио книги, журналы? Добро пожаловать на свободный торрент трекер Torrents, у нас можно скачать бесплатно, без смс и регистрации и прочих ограничений лучшие, отборные сборки программ, игр. Скачать торрентом не составит труда даже не опытному пользователю. Раздачи ежедневно обновляются, только лучшие и качественные раздачи, подробные описания и скриншоты. Огромная коллекция программ для работы со звуком, графикой, дизайном, а так же множество плагинов и инструментов к ним с подробной инструкцией и рекомендациями. Прошивки для навигаторов, карты. Разнообразные игры, для Windows, Linux. В коллекцие есть и старые игры любых жанров, Rpg, Action, Shooter, strategy Множество дополнений, модификаций, сценариев для популярных игр в жанре экш, рпг, гонки, стратегии, логические игры. Множество аддонов и сценариев для Microsoft Flight Simulator Большая коллекция книг, учебников. Если нет возможности купить печатное издание - смело скачивайте цифровую версию книги или, быть может, журнала. Не любите читать - можно загрузить бесплатно аудикнигу. Для веб дизайнеров и программистов так же найдется множество специализированного софта, таких как: редакторы с подсветкой, среды программирования, компоненты, системы управления базами данных, разнообразные скрипты и шаблоны. Не так давно у нас появился материал для автолюбителей и владельцев мото - оригинальные и неоригинальные каталоги запчастей, книги и журналы по ремонту и обслуживанию, видеоуроки, статьи по чип тюнингу, прошивкам. Процедура получения контента элементарная, достаточно просто скачать торрент файл и добавить его в загрузку в вашем торрент клиенте. Если у вас нет специального торрент клиента, вы можете его скачать у нас.