Великодушный / Миллионер / Миллиардер / Srimanthudu (Кораталла Сива / Koratalla Siva) [2015, Индия, Боевик, драма, мелодрама, WEB-DLRip] MVO (т/к Индия ТВ) + Sub Rus (песни) 

Цитировать
Великодушный /
Миллионер / Srimanthudu

Страна: Индия
Жанр: Боевик, драма, мелодрама
Год выпуска: 2015
Продолжительность: 02:41:56-Перевод: Профессиональный (многоголосый, закадровый) - т/к Индия ТВ
Субтитры: Русские (песни) - Ларри, Мехенди-Режиссер: Кораталла Сива / Koratalla Siva-В ролях: Джагапати Бабу, Махеш Бабу, Шрути Хасан, Сампат Радж, Раджендрапрасад, Рахул Равиндран, Санам Шетти, Сюканая-Описание: Харша, наследник крупной компании, не решается принять бразды правления в свои руки. Перед тем, как все же согласиться со своей семьей и принять на себя управление бизнесом, он решает посетить родную деревню своего отца.(Марк1979)- | --Качество видео: WEB-DLRip
Формат видео: AVI-Видео: 720x304 (2.37:1), 30 fps, XviD build 50 ~1152 kbps
Аудио: 48 kHz, MPEG Layer 3, 2 ch, ~128.00 kbps
Формат субтитров: hardsub (неотключаемые, вшитые в картинку)-Сэмпл-Релиз от: и Deewana
Перевод субтитров: Ларри, Мехенди (спасибо!)
Рип, синхрон. звука: soso4eg
Большое спасибо василиссе за запись звука с канала Индия ТВ =)- --

Скриншот с названием

-

Скриншоты

-

MI

General
Complete name : I:\Rip\Srimanthudu.2016.P.HDRip.XviD.BwTorrents.avi
Format : AVI
Format/Info : Audio Video Interleave
File size : 1.46 GiB
Duration : 2h 41mn
Overall bit rate : 1 292 Kbps
Writing application : VirtualDubMod 1.5.10.2 (build 2540/release)
Video
ID : 0
Format : MPEG-4 Visual
Format profile : Advanced Simple@L5
Format settings, BVOP : 1
Format settings, QPel : No
Format settings, GMC : No warppoints
Format settings, Matrix : Default (H.263)
Codec ID : XVID
Codec ID/Hint : XviD
Duration : 2h 41mn
Bit rate : 1 152 Kbps
Width : 720 pixels
Height : 304 pixels
Display aspect ratio : 2.35:1
Frame rate : 30.000 fps
Color space : YUV
Chroma subsampling : 4:2:0
Bit depth : 8 bits
Scan type : Progressive
Compression mode : Lossy
Bits/(Pixel*Frame) : 0.176
Stream size : 1.30 GiB (89%)
Writing library : XviD 1.2.1 (UTC 2008-12-04)
Audio
ID : 1
Format : MPEG Audio
Format version : Version 1
Format profile : Layer 3
Mode : Joint stereo
Mode extension : MS Stereo
Codec ID : 55
Codec ID/Hint : MP3
Duration : 2h 41mn
Bit rate mode : Constant
Bit rate : 128 Kbps
Channel(s) : 2 channels
Sampling rate : 48.0 KHz
Compression mode : Lossy
Stream size : 148 MiB (10%)
Alignment : Aligned on interleaves
Interleave, duration : 33 ms (1.00 video frame)
Interleave, preload duratio : 504 ms
Вы не можете начинать темы
Вы не можете отвечать на сообщения
Вы не можете редактировать свои сообщения
Вы не можете удалять свои сообщения
Вы не можете голосовать в опросах
Вы не можете прикреплять файлы к сообщениям
Вы можете скачивать файлы
!ВНИМАНИЕ!

Сайт не предоставляет электронные версии произведений, а занимается лишь коллекционированием и каталогизацией ссылок, присылаемых и публикуемых на форуме нашими читателями. Если вы являетесь правообладателем какого-либо представленного материала и не желаете, чтобы ссылка на него находилась в нашем каталоге, свяжитесь с нами, и мы незамедлительно удалим ее. Файлы для обмена на трекере предоставлены пользователями сайта, и администрация не несет ответственности за их содержание. Просьба не заливать файлы, защищенные авторскими правами, а также файлы нелегального содержания!

Искали программы, игры, дополнения, музыка mp3, аниме, аудио книги, журналы? Добро пожаловать на свободный торрент трекер Torrents, у нас можно скачать бесплатно, без смс и регистрации и прочих ограничений лучшие, отборные сборки программ, игр. Скачать торрентом не составит труда даже не опытному пользователю. Раздачи ежедневно обновляются, только лучшие и качественные раздачи, подробные описания и скриншоты. Огромная коллекция программ для работы со звуком, графикой, дизайном, а так же множество плагинов и инструментов к ним с подробной инструкцией и рекомендациями. Прошивки для навигаторов, карты. Разнообразные игры, для Windows, Linux. В коллекцие есть и старые игры любых жанров, Rpg, Action, Shooter, strategy Множество дополнений, модификаций, сценариев для популярных игр в жанре экш, рпг, гонки, стратегии, логические игры. Множество аддонов и сценариев для Microsoft Flight Simulator Большая коллекция книг, учебников. Если нет возможности купить печатное издание - смело скачивайте цифровую версию книги или, быть может, журнала. Не любите читать - можно загрузить бесплатно аудикнигу. Для веб дизайнеров и программистов так же найдется множество специализированного софта, таких как: редакторы с подсветкой, среды программирования, компоненты, системы управления базами данных, разнообразные скрипты и шаблоны. Не так давно у нас появился материал для автолюбителей и владельцев мото - оригинальные и неоригинальные каталоги запчастей, книги и журналы по ремонту и обслуживанию, видеоуроки, статьи по чип тюнингу, прошивкам. Процедура получения контента элементарная, достаточно просто скачать торрент файл и добавить его в загрузку в вашем торрент клиенте. Если у вас нет специального торрент клиента, вы можете его скачать у нас.