Сардар Габбар Сингх / Sardaar Gabbar Singh / (Бобби Колли / Bobby Kolli) [2016, Индия, Боевик, HDRip] DVO (FanStudio) + Sub Rus (песни) 

Цитировать
Сардар Габбар Сингх / Sardaar Gabbar Singh
Страна: Индия
Жанр: Боевик
Год выпуска: 2016
Продолжительность: 02:44:31-Перевод: Любительский (двухголосый закадровый) - FanStudio
Субтитры: Есть (песни) - Wita-Режиссер: Бобби Колли / Bobby Kolli-В ролях: Каджал, Паван Кальян, Мукеш Риши, Брахманандам, Шарад Келкар, Таникелла Бхарани, Али, Кришна Мурали Посани, Рао Рамеш, Брахмаджи-Описание: В отличие от экранного злодея, чье имя он взял, Сардар Габбар Сингх сам борется с преступниками, такова его миссия. Лихой, отважный, без царя в голове - его обедом не корми, дай бандюгана пристрелить. Вместе с верным другом детства Самбой они отправлены опекуном в селение Ратанпур, где свирепствуют банды местного раджи Бхайрава Сингха. Чтобы победить врага, Сардару приходится поначалу хитрить и подыгрывать. Но бандиты - это еще не все напасти, которые свалились на голову смелого полицейского. Дело в том, что неподалеку есть огромный дворец, а во дворце живет прекрасная принцесса. И парня угораздило... ну, вы сами понимаете: надо смотреть фильм!-IMDb | Кинопоиск--Качество видео: HDRip
Формат видео: AVI-Видео: 720x304 (2.37:1), 24.000 fps, XviD build 50 ~1669 kbps avg, 0.32 bit/pixel
Аудио: Audio: 48 kHz, AC3 Dolby Digital, 2/0 (L,R) ch, ~192 kbps
-
Сэмпл-Совместный релиз: Wita, FanStudio и
Перевод на русский язык: Wita (спасибо!)
Озвучивание: Berserk, Эрмен (спасибо!)
Рип: soso4eg- --

Скриншот с названием

--

MediaInfo

General
Complete name : F:\1_1\Sardaar.Gabbar.Singh.2016.L.HDRip.XviD.BwTorrents.avi
Format : AVI
Format/Info : Audio Video Interleave
Format profile : OpenDML
File size : 2.15 GiB
Duration : 2h 44mn
Overall bit rate : 1 868 Kbps
Writing application : VirtualDubMod 1.5.10.3 | www.virtualdub-fr.org || (build 2550/release)
Video
ID : 0
Format : MPEG-4 Visual
Format profile : Advanced Simple@L5
Format settings, BVOP : 2
Format settings, QPel : No
Format settings, GMC : No warppoints
Format settings, Matrix : Default (H.263)
Codec ID : XVID
Codec ID/Hint : XviD
Duration : 2h 44mn
Bit rate : 1 664 Kbps
Width : 720 pixels
Height : 304 pixels
Display aspect ratio : 2.35:1
Frame rate : 24.000 fps
Color space : YUV
Chroma subsampling : 4:2:0
Bit depth : 8 bits
Scan type : Progressive
Compression mode : Lossy
Bits/(Pixel*Frame) : 0.317
Stream size : 1.91 GiB (89%)
Writing library : XviD 1.2.1 (UTC 2008-12-04)
Audio
ID : 1
Format : AC-3
Format/Info : Audio Coding 3
Mode extension : CM (complete main)
Format settings, Endianness : Big
Codec ID : 2000
Duration : 2h 44mn
Bit rate mode : Constant
Bit rate : 192 Kbps
Channel(s) : 2 channels
Channel positions : Front: L R
Sampling rate : 48.0 KHz
Compression mode : Lossy
Stream size : 226 MiB (10%)
Alignment : Split accross interleaves
Interleave, duration : 42 ms (1.00 video frame)
Interleave, preload duratio : 500 ms
Вы не можете начинать темы
Вы не можете отвечать на сообщения
Вы не можете редактировать свои сообщения
Вы не можете удалять свои сообщения
Вы не можете голосовать в опросах
Вы не можете прикреплять файлы к сообщениям
Вы можете скачивать файлы
!ВНИМАНИЕ!

Сайт не предоставляет электронные версии произведений, а занимается лишь коллекционированием и каталогизацией ссылок, присылаемых и публикуемых на форуме нашими читателями. Если вы являетесь правообладателем какого-либо представленного материала и не желаете, чтобы ссылка на него находилась в нашем каталоге, свяжитесь с нами, и мы незамедлительно удалим ее. Файлы для обмена на трекере предоставлены пользователями сайта, и администрация не несет ответственности за их содержание. Просьба не заливать файлы, защищенные авторскими правами, а также файлы нелегального содержания!

Искали программы, игры, дополнения, музыка mp3, аниме, аудио книги, журналы? Добро пожаловать на свободный торрент трекер Torrents, у нас можно скачать бесплатно, без смс и регистрации и прочих ограничений лучшие, отборные сборки программ, игр. Скачать торрентом не составит труда даже не опытному пользователю. Раздачи ежедневно обновляются, только лучшие и качественные раздачи, подробные описания и скриншоты. Огромная коллекция программ для работы со звуком, графикой, дизайном, а так же множество плагинов и инструментов к ним с подробной инструкцией и рекомендациями. Прошивки для навигаторов, карты. Разнообразные игры, для Windows, Linux. В коллекцие есть и старые игры любых жанров, Rpg, Action, Shooter, strategy Множество дополнений, модификаций, сценариев для популярных игр в жанре экш, рпг, гонки, стратегии, логические игры. Множество аддонов и сценариев для Microsoft Flight Simulator Большая коллекция книг, учебников. Если нет возможности купить печатное издание - смело скачивайте цифровую версию книги или, быть может, журнала. Не любите читать - можно загрузить бесплатно аудикнигу. Для веб дизайнеров и программистов так же найдется множество специализированного софта, таких как: редакторы с подсветкой, среды программирования, компоненты, системы управления базами данных, разнообразные скрипты и шаблоны. Не так давно у нас появился материал для автолюбителей и владельцев мото - оригинальные и неоригинальные каталоги запчастей, книги и журналы по ремонту и обслуживанию, видеоуроки, статьи по чип тюнингу, прошивкам. Процедура получения контента элементарная, достаточно просто скачать торрент файл и добавить его в загрузку в вашем торрент клиенте. Если у вас нет специального торрент клиента, вы можете его скачать у нас.