[Making] A.N.JELL: Ты прекрасен! / A.N.JELL: You\'re beautiful / You\'re Handsome [2009, документальный, музыкальный, Корея][KOR][RAW] 

Цитировать
Ты прекрасен! / 미남이시네요 / A.N.Jell: You're beautiful
Год выпуска: 2009
Страна: Корея
Жанр: музыкальный, романтика, комедия
Продолжительность: 3 DVD
Перевод: отсутствует
Субтитры: отсутствуют
Описание: в раздаче находятся съемки сериала A.N.JELL: Ты прекрасен! и всякие бонусы к нему.
На мой взгляд, интереснее всего третий диск. Он полностью музыкальный и в переводе не нуждается.
Качество: DVD5
Формат: DVD Video
Видео: 720*480, 4128-9264 Кбит/с, 29,970 fps, MPEG Video v.2, 0.406 bits/pixel
Аудио: 192 Кбит/с, 48,0 КГц, 2 канала, AC-3
Внимание! Если кто-то знает, где достать субтитры хотя бы на английском, либо может перевести с корейского языка, напишите, пожалуйста, в ЛС.

Отчет MediaInfo

General
Complete name : D:\video\A.N.JELL. You are beautiful - Special\1\VIDEO_TS\VTS_01_0.VOB
Format : MPEG-PS
File size : 16.0 MiB
Duration : 30s 16ms
Overall bit rate : 4 484 Kbps
Video
ID : 224 (0xE0)
Format : MPEG Video
Format version : Version 2
Format profile : Main@Main
Format settings, BVOP : Yes
Format settings, Matrix : Default
Format settings, GOP : M=3, N=15
Duration : 33ms
Bit rate mode : Variable
Bit rate : 4 203 Kbps
Nominal bit rate : 9 264 Kbps
Width : 720 pixels
Height : 480 pixels
Display aspect ratio : 16:9
Frame rate : 29.970 fps
Standard : NTSC
Color space : YUV
Chroma subsampling : 4:2:0
Bit depth : 8 bits
Scan type : Interlaced
Scan order : Top Field First
Compression mode : Lossy
Bits/(Pixel*Frame) : 0.406
Stream size : 16.9 KiB (0%)
Audio
ID : 189 (0xBD)-128 (0x80)
Format : AC-3
Format/Info : Audio Coding 3
Mode extension : CM (complete main)
Muxing mode : DVD-Video
Duration : 30s 16ms
Bit rate mode : Constant
Bit rate : 192 Kbps
Channel(s) : 2 channels
Channel positions : Front: L R
Sampling rate : 48.0 KHz
Bit depth : 16 bits
Compression mode : Lossy
Stream size : 704 KiB (4%)
Text #1
ID : 189 (0xBD)-32 (0x20)
Format : RLE
Format/Info : Run-length encoding
Muxing mode : DVD-Video
Text #2
ID : 189 (0xBD)-33 (0x21)
Format : RLE
Format/Info : Run-length encoding
Muxing mode : DVD-Video
Menu

Скриншоты

А так же на трекере можно скачать:
- саундтреки к сериалу: первый и второй альбомы;
- трек Breathless, который играет в момент, когда Тхэ Гён указывает на рекламу со своим участием, и присутствует в 7-ой серии;
- шоу "Семейный отдых", одним из участников которого является Ли Хон Ки, сыгравший Джереми;
- множество альбомов и роликов группы FT Island, в которой состоит Ли Хон Ки.
Вы не можете начинать темы
Вы не можете отвечать на сообщения
Вы не можете редактировать свои сообщения
Вы не можете удалять свои сообщения
Вы не можете голосовать в опросах
Вы не можете прикреплять файлы к сообщениям
Вы можете скачивать файлы
!ВНИМАНИЕ!

Сайт не предоставляет электронные версии произведений, а занимается лишь коллекционированием и каталогизацией ссылок, присылаемых и публикуемых на форуме нашими читателями. Если вы являетесь правообладателем какого-либо представленного материала и не желаете, чтобы ссылка на него находилась в нашем каталоге, свяжитесь с нами, и мы незамедлительно удалим ее. Файлы для обмена на трекере предоставлены пользователями сайта, и администрация не несет ответственности за их содержание. Просьба не заливать файлы, защищенные авторскими правами, а также файлы нелегального содержания!

Искали программы, игры, дополнения, музыка mp3, аниме, аудио книги, журналы? Добро пожаловать на свободный торрент трекер Torrents, у нас можно скачать бесплатно, без смс и регистрации и прочих ограничений лучшие, отборные сборки программ, игр. Скачать торрентом не составит труда даже не опытному пользователю. Раздачи ежедневно обновляются, только лучшие и качественные раздачи, подробные описания и скриншоты. Огромная коллекция программ для работы со звуком, графикой, дизайном, а так же множество плагинов и инструментов к ним с подробной инструкцией и рекомендациями. Прошивки для навигаторов, карты. Разнообразные игры, для Windows, Linux. В коллекцие есть и старые игры любых жанров, Rpg, Action, Shooter, strategy Множество дополнений, модификаций, сценариев для популярных игр в жанре экш, рпг, гонки, стратегии, логические игры. Множество аддонов и сценариев для Microsoft Flight Simulator Большая коллекция книг, учебников. Если нет возможности купить печатное издание - смело скачивайте цифровую версию книги или, быть может, журнала. Не любите читать - можно загрузить бесплатно аудикнигу. Для веб дизайнеров и программистов так же найдется множество специализированного софта, таких как: редакторы с подсветкой, среды программирования, компоненты, системы управления базами данных, разнообразные скрипты и шаблоны. Не так давно у нас появился материал для автолюбителей и владельцев мото - оригинальные и неоригинальные каталоги запчастей, книги и журналы по ремонту и обслуживанию, видеоуроки, статьи по чип тюнингу, прошивкам. Процедура получения контента элементарная, достаточно просто скачать торрент файл и добавить его в загрузку в вашем торрент клиенте. Если у вас нет специального торрент клиента, вы можете его скачать у нас.