Невеста Бадринатха / Badrinath Ki Dulhania (Шашанк Кхайтан / Shashank Khaitan) [2017, Индия, Комедия, мелодрама, HDRip] MVO + Sub Rus (на песни) 

Цитировать
Невеста Бадринатха / Badrinath Ki Dulhania- Страна: Индия
Жанр: Комедия, мелодрама
Год выпуска: 2017
Продолжительность: 02:19:31-Перевод: Любительский (многоголосый закадровый) - Андрей Стакионис, Давид Петросян и Маргарита Сахно
Субтитры: Русские (на песни)-Режиссер: Шашанк Кхайтан / Shashank Khaitan-В ролях: Варун Дхаван, Алиа Бхатт, Сахил, Свананд Киркире, Риту Радж Сингх, Яш Синха, Раджендра Сетхи, Брама Мишра, Швета Прасад
Описание: Бадринатх Бансал — сын крупного деревенского бизнесмена. Он мечтает жениться на хорошей девушке и свить с ней семейное гнёздышко. На свадьбе друга парень встречает строптивую Вайдехи, влюбляется в неё с первого взгляда и сразу же предлагает девушке свою руку и сердце. Однако в планы Вайдехи не входит замужество, и она даёт влюблённому парню от ворот поворот. Но Бадринатх не из тех, кто легко сдаётся. Он решает во что бы то ни стало добиться сердца красавицы.-
-
Качество видео: HDRip / исх. неизвестен
Формат видео: AVI
Видео: 720x304 (2.35:1), 23.976 fps, XviD, 1723 Kbps, 0.32 Bits/Pixel
Аудио: 48 kHz, AC3 Dolby Digital, 3/2 (L,C,R,l,r) + LFE ch, 448 Kbps

Релиз подготовлен

Озвучка: Андрей Стакионис, Давид Петросян и Маргарита Сахно (спасибо!)
Перевод: ❖ HONEY&HASEENA ❖ (спасибо!)
Заказ Селены Шелестовой для группы ВК •°•• ИНДИЙСКОЕ КИНО - БОЛЛИВУД И ЮГ •°•• (спасибо!)
Релиз-группа:

MediaInfo

General
Complete name : Downloads\Badrinath.2017.HoneyHaseena.avi
Format : AVI
Format/Info : Audio Video Interleave
Format profile : OpenDML
File size : 2.13 GiB
Duration : 2h 19mn
Overall bit rate : 2 183 Kbps
Writing application : VirtualDubMod 1.5.10.2 (build 2540/release)
Writing library : VirtualDubMod build 2540/release
Video #0
ID : 0
Format : xvid
Codec ID : xvid
Duration : 2h 19mn
Bit rate : 1 723 Kbps
Width : 720 pixels
Height : 304 pixels
Display aspect ratio : 2.35:1
Frame rate : 23.976 fps
Bits/(Pixel*Frame) : 0.328
Stream size : 1.68 GiB (79%)
Audio #1
ID : 1
Format : AC-3
Format/Info : Audio Coding 3
Mode extension : CM (complete main)
Format settings, Endianness : Big
Codec ID : 2000
Duration : 2h 19mn
Bit rate mode : Constant
Bit rate : 448 Kbps
Channel(s) : 6 channels
Channel positions : Front: L C R, Side: L R, LFE
Sampling rate : 48.0 KHz
Bit depth : 16 bits
Compression mode : Lossy
Stream size : 447 MiB (21%)
Alignment : Split accross interleaves
Interleave, duration : 42 ms (1.00 video frame)
Interleave, preload duration : 500 ms

Скриншот c названием фильма

Скриншоты

Вы не можете начинать темы
Вы не можете отвечать на сообщения
Вы не можете редактировать свои сообщения
Вы не можете удалять свои сообщения
Вы не можете голосовать в опросах
Вы не можете прикреплять файлы к сообщениям
Вы можете скачивать файлы
!ВНИМАНИЕ!

Сайт не предоставляет электронные версии произведений, а занимается лишь коллекционированием и каталогизацией ссылок, присылаемых и публикуемых на форуме нашими читателями. Если вы являетесь правообладателем какого-либо представленного материала и не желаете, чтобы ссылка на него находилась в нашем каталоге, свяжитесь с нами, и мы незамедлительно удалим ее. Файлы для обмена на трекере предоставлены пользователями сайта, и администрация не несет ответственности за их содержание. Просьба не заливать файлы, защищенные авторскими правами, а также файлы нелегального содержания!

Искали программы, игры, дополнения, музыка mp3, аниме, аудио книги, журналы? Добро пожаловать на свободный торрент трекер Torrents, у нас можно скачать бесплатно, без смс и регистрации и прочих ограничений лучшие, отборные сборки программ, игр. Скачать торрентом не составит труда даже не опытному пользователю. Раздачи ежедневно обновляются, только лучшие и качественные раздачи, подробные описания и скриншоты. Огромная коллекция программ для работы со звуком, графикой, дизайном, а так же множество плагинов и инструментов к ним с подробной инструкцией и рекомендациями. Прошивки для навигаторов, карты. Разнообразные игры, для Windows, Linux. В коллекцие есть и старые игры любых жанров, Rpg, Action, Shooter, strategy Множество дополнений, модификаций, сценариев для популярных игр в жанре экш, рпг, гонки, стратегии, логические игры. Множество аддонов и сценариев для Microsoft Flight Simulator Большая коллекция книг, учебников. Если нет возможности купить печатное издание - смело скачивайте цифровую версию книги или, быть может, журнала. Не любите читать - можно загрузить бесплатно аудикнигу. Для веб дизайнеров и программистов так же найдется множество специализированного софта, таких как: редакторы с подсветкой, среды программирования, компоненты, системы управления базами данных, разнообразные скрипты и шаблоны. Не так давно у нас появился материал для автолюбителей и владельцев мото - оригинальные и неоригинальные каталоги запчастей, книги и журналы по ремонту и обслуживанию, видеоуроки, статьи по чип тюнингу, прошивкам. Процедура получения контента элементарная, достаточно просто скачать торрент файл и добавить его в загрузку в вашем торрент клиенте. Если у вас нет специального торрент клиента, вы можете его скачать у нас.