Дхарави / Dharavi (Судхир Мишра / Sudhir Mishra) [1992, Индия, Драма, DVDRip-AVC] VO (Оксана) 

Цитировать
Дхарави / Dharavi- Страна: Индия
Жанр: Драма
Год выпуска: 1992
Продолжительность: 01:51:40-Перевод: Одноголосый закадровый - Оксана
Субтитры: нет-Режиссер: Судхир Мишра / Sudhir Mishra-В ролях: Ом Пури, Шабана Азми, Прамод Бала, Мадхури Дикшит, Муштак Кхан, Сатиш Кхопкар, Шакти Сингх, Рагхувир Ядав, Анил Капур, Анджана Мумтаз, Дипак Казир, Вирендра Саксена-Описание: Раджкаран Ядав (Ом Пури) - водитель такси, который живет вместе со своей женой (Шабана Азми) и сыном в Дхарави, так называется один из самых больших районов трущоб в Бомбее (теперь Мумбаи). Фильм рассказывает об одном из этапов жизни таксиста, а именно, какие трудности и препятствия ему приходится преодолеть, когда он пытается открыть свое дело.
Сэмпл: http://multi-up.com/1162820
Качество видео: DVDRip-AVC
Формат видео: MKV
Видео: MPEG-4 AVC, 624x432, 25.000 fps, 1422 Kbps, 0.211 bits/pixel
Аудио: 48 kHz, AC3, 2 ch, 192 kbps

Релиз

Перевод субтитров: katerinale
Озвучка: Оксана
Материалы: larisa_k
Релиз-группа:

MediaInfo

General
Complete name : Downloads\Dharavi.1992.DVDRip.x264.BWTorrents.mkv
Format : Matroska
Format version : Version 2
File size : 1.28 GiB
Duration : 1h 51mn
Overall bit rate : 1 646 Kbps
Writing application : mkvmerge v5.4.0 ('Piper') built on Mar 10 2012 13:34:39
Writing library : libebml v1.2.3 + libmatroska v1.3.0
Video #1
ID : 1
Format : MPEG-4 Visual
Format profile : Advanced Simple@L5
Format settings, BVOP : 2
Format settings, QPel : No
Format settings, GMC : No warppoints
Format settings, Matrix : Default (H.263)
Codec ID : V_MS/VFW/FOURCC / XVID
Codec ID/Hint : XviD
Duration : 1h 51mn
Bit rate : 1 422 Kbps
Width : 624 pixels
Height : 432 pixels
Display aspect ratio : 1.444
Frame rate mode : Constant
Frame rate : 25.000 fps
Color space : YUV
Chroma subsampling : 4:2:0
Bit depth : 8 bits
Scan type : Progressive
Compression mode : Lossy
Bits/(Pixel*Frame) : 0.211
Stream size : 1.11 GiB (86%)
Writing library : XviD 1.2.1 (UTC 2008-12-04)
Default : Yes
Forced : No
Audio #2
ID : 2
Format : AC-3
Format/Info : Audio Coding 3
Mode extension : CM (complete main)
Format settings, Endianness : Big
Muxing mode : Header stripping
Codec ID : A_AC3
Duration : 1h 51mn
Bit rate mode : Constant
Bit rate : 192 Kbps
Channel(s) : 2 channels
Channel positions : Front: L R
Sampling rate : 48.0 KHz
Bit depth : 16 bits
Compression mode : Lossy
Stream size : 153 MiB (12%)
Default : Yes
Forced : No

Скриншот c названием фильма

Скриншоты

Вы не можете начинать темы
Вы не можете отвечать на сообщения
Вы не можете редактировать свои сообщения
Вы не можете удалять свои сообщения
Вы не можете голосовать в опросах
Вы не можете прикреплять файлы к сообщениям
Вы можете скачивать файлы
!ВНИМАНИЕ!

Сайт не предоставляет электронные версии произведений, а занимается лишь коллекционированием и каталогизацией ссылок, присылаемых и публикуемых на форуме нашими читателями. Если вы являетесь правообладателем какого-либо представленного материала и не желаете, чтобы ссылка на него находилась в нашем каталоге, свяжитесь с нами, и мы незамедлительно удалим ее. Файлы для обмена на трекере предоставлены пользователями сайта, и администрация не несет ответственности за их содержание. Просьба не заливать файлы, защищенные авторскими правами, а также файлы нелегального содержания!

Искали программы, игры, дополнения, музыка mp3, аниме, аудио книги, журналы? Добро пожаловать на свободный торрент трекер Torrents, у нас можно скачать бесплатно, без смс и регистрации и прочих ограничений лучшие, отборные сборки программ, игр. Скачать торрентом не составит труда даже не опытному пользователю. Раздачи ежедневно обновляются, только лучшие и качественные раздачи, подробные описания и скриншоты. Огромная коллекция программ для работы со звуком, графикой, дизайном, а так же множество плагинов и инструментов к ним с подробной инструкцией и рекомендациями. Прошивки для навигаторов, карты. Разнообразные игры, для Windows, Linux. В коллекцие есть и старые игры любых жанров, Rpg, Action, Shooter, strategy Множество дополнений, модификаций, сценариев для популярных игр в жанре экш, рпг, гонки, стратегии, логические игры. Множество аддонов и сценариев для Microsoft Flight Simulator Большая коллекция книг, учебников. Если нет возможности купить печатное издание - смело скачивайте цифровую версию книги или, быть может, журнала. Не любите читать - можно загрузить бесплатно аудикнигу. Для веб дизайнеров и программистов так же найдется множество специализированного софта, таких как: редакторы с подсветкой, среды программирования, компоненты, системы управления базами данных, разнообразные скрипты и шаблоны. Не так давно у нас появился материал для автолюбителей и владельцев мото - оригинальные и неоригинальные каталоги запчастей, книги и журналы по ремонту и обслуживанию, видеоуроки, статьи по чип тюнингу, прошивкам. Процедура получения контента элементарная, достаточно просто скачать торрент файл и добавить его в загрузку в вашем торрент клиенте. Если у вас нет специального торрент клиента, вы можете его скачать у нас.