Я - Бог / Naan Kadavul (Бала / Bala) [2009, Индия, Драма, DVDRip] Sub rus, eng 

Цитировать
Я - Бог / Naan Kadavul- -Страна: Индия
Жанр: Драма
Год выпуска: 2009
Продолжительность: 02:15:12
Перевод: Субтитры (русские, английские). Автор перевода Zarin@
Для того чтобы субтитры включались, файл с сабами (srt) должен иметь одинаковое название с видео файлом (avi),
откройте папку с файлами фильма, найдите файлик tmg-naankadavul-xvid.Russian.srt
и сотрите из его названия слово Russian. Теперь в Вашей папке все файлы с одним и тем же
названием tmg-naankadavul-xvid (автоматом в конце названия файла добавляется формат)
-Режиссер: Бала / Bala
В ролях: Арья, Пуджа Умашанкар, Раджендран, Кришнамурти--Описание:
Испугавшись страшных предсказаний астрологов, отец привозит маленького сына в Каси и бросает его там. Спустя много лет он находит своего ребенка за исполнением жутких обрядов над умершими, ибо теперь он агхори (аскет Шиваит). Он не поклоняется Богу, он сам - Бог. Для него нет законов, он никому и ничему не принадлежит. Он бог смерти, ибо может дать ее как наказание или избавление. Следуя предписаниям своего гуру агхори возвращается с отцом в деревню, чтобы навсегда отказаться от семьи и каких-либо привязанностей, как того требует его религия, не зная, что он явится карающим мечом зла и корысти, ибо он первый, кто не выносит смрад истинного греха.--СЭМПЛ скачать можно здесь

Дополнительная информация

В Индии перемешалось огромное количество всевозможных культур, духовных учений и религий. Неподготовленному человеку довольно сложно здесь разобраться. Агхора - древняя и уважаемая традиция, многие считают ее закрытой сектой. Учение очень сложное и экзотичное, даже демоническое на первый взгляд, ибо не каждая религия решится идти от тьмы к свету через жуткие ритуалы с поглощением останков людей и животных, отказ от всех мирских радостей и т. п. В агхоре ученик принимает тьму в объятия и заставляет ее работать на себя. «Веди меня от лжи к истине, веди меня от тьмы к свету, веди меня от смерти к бессмертию». Агхора учит принимать мир, принимать грязь, принимать тьму, так же как и свет, ибо это в сущности, разные проявления одной реальности.
Фильм конечно не отличается документальностью, образ главного героя поддерживается в основном атрибутикой (гашиш, медитации, ожерелье из черепов, пепел от погребений, постоянно горящий огонь и т. п.). Сюжет порой нелогичен и напоминает прыгающий кадр. Однако фильм заслуживает внимания, и интересен поднятой проблематикой, реалистичностью картин нищеты, уродства, жестокости на фоне реальности, да и самой попыткой показать загадочный и темный мир аскетов, ведь мало кто за пределами Индии знает об агхори.
Фильмы Балы (Сету (1999), Нанда (2001), Сын Бога (2003) ) необычные, неоднозначные и очень тяжелые, по сравнению, например, с раскрученным «Миллионером из трущоб», и отличаются даже большей реалистичностью. «Я - бог» не явился исключением.
Смотрите и делайте свои выводы.

Из рецензии artNatalia "Тьма несущая свет"
Качество видео: DVDRip
Формат видео: AVI
Видео: Xvid 640x256 23.98fps 1 545 Kbps
Аудио: Dolby AC3 48000Hz 6ch 448Kbps
Формат субтитров: softsub (SRT) Russian, prerendered (IDX, SAB) English

MediaInfo

General
Complete name : Naan.Kadavul.2009.DVDRip.XviD.AC3.Subs-TmG\tmg-naankadavul-xvid.avi
Format : AVI
Format/Info : Audio Video Interleave
File size : 1.46 GiB
Duration : 2h 15mn
Overall bit rate : 1 545 Kbps
Writing application : VirtualDubMod 1.5.10.2 (build 2542/release)
Writing library : VirtualDubMod build 2542/release
Video
ID : 0
Format : MPEG-4 Visual
Format profile : AdvancedSimple@L5
Format settings, BVOP : Yes
Format settings, QPel : No
Format settings, GMC : No warppoints
Format settings, Matrix : Default (MPEG)
Codec ID : XVID
Codec ID/Hint : XviD
Duration : 2h 15mn
Bit rate : 1 089 Kbps
Width : 640 pixels
Height : 256 pixels
Display aspect ratio : 2.500
Frame rate : 23.976 fps
Resolution : 24 bits
Colorimetry : 4:2:0
Scan type : Progressive
Bits/(Pixel*Frame) : 0.277
Stream size : 1.03 GiB (70%)
Writing library : XviD 1.2.0.dev47 (UTC 2006-11-01)
Audio
ID : 1
Format : AC-3
Format/Info : Audio Coding 3
Codec ID : 2000
Duration : 2h 14mn
Bit rate mode : Constant
Bit rate : 448 Kbps
Channel(s) : 6 channels
Channel positions : Front: L C R, Surround: L R, LFE
Sampling rate : 48.0 KHz
Stream size : 432 MiB (29%)

Скриншот c названием фильма


Скриншоты

Вы не можете начинать темы
Вы не можете отвечать на сообщения
Вы не можете редактировать свои сообщения
Вы не можете удалять свои сообщения
Вы не можете голосовать в опросах
Вы не можете прикреплять файлы к сообщениям
Вы можете скачивать файлы
!ВНИМАНИЕ!

Сайт не предоставляет электронные версии произведений, а занимается лишь коллекционированием и каталогизацией ссылок, присылаемых и публикуемых на форуме нашими читателями. Если вы являетесь правообладателем какого-либо представленного материала и не желаете, чтобы ссылка на него находилась в нашем каталоге, свяжитесь с нами, и мы незамедлительно удалим ее. Файлы для обмена на трекере предоставлены пользователями сайта, и администрация не несет ответственности за их содержание. Просьба не заливать файлы, защищенные авторскими правами, а также файлы нелегального содержания!

Искали программы, игры, дополнения, музыка mp3, аниме, аудио книги, журналы? Добро пожаловать на свободный торрент трекер Torrents, у нас можно скачать бесплатно, без смс и регистрации и прочих ограничений лучшие, отборные сборки программ, игр. Скачать торрентом не составит труда даже не опытному пользователю. Раздачи ежедневно обновляются, только лучшие и качественные раздачи, подробные описания и скриншоты. Огромная коллекция программ для работы со звуком, графикой, дизайном, а так же множество плагинов и инструментов к ним с подробной инструкцией и рекомендациями. Прошивки для навигаторов, карты. Разнообразные игры, для Windows, Linux. В коллекцие есть и старые игры любых жанров, Rpg, Action, Shooter, strategy Множество дополнений, модификаций, сценариев для популярных игр в жанре экш, рпг, гонки, стратегии, логические игры. Множество аддонов и сценариев для Microsoft Flight Simulator Большая коллекция книг, учебников. Если нет возможности купить печатное издание - смело скачивайте цифровую версию книги или, быть может, журнала. Не любите читать - можно загрузить бесплатно аудикнигу. Для веб дизайнеров и программистов так же найдется множество специализированного софта, таких как: редакторы с подсветкой, среды программирования, компоненты, системы управления базами данных, разнообразные скрипты и шаблоны. Не так давно у нас появился материал для автолюбителей и владельцев мото - оригинальные и неоригинальные каталоги запчастей, книги и журналы по ремонту и обслуживанию, видеоуроки, статьи по чип тюнингу, прошивкам. Процедура получения контента элементарная, достаточно просто скачать торрент файл и добавить его в загрузку в вашем торрент клиенте. Если у вас нет специального торрент клиента, вы можете его скачать у нас.